  0
SECTION
  2
HEADER
  9
$ACADVER
  1
AC1006
  9
$DWGCODEPAGE
  3
ansi_950
  9
$INSBASE
 10
0.0
 20
0.0
 30
0.0
  9
$EXTMIN
 10
-0.0340733197792815
 20
-0.0115961488266976
  9
$EXTMAX
 10
558.3169065919101
 20
190.0115980243685
  9
$LIMMIN
 10
0.0
 20
0.0
  9
$LIMMAX
 10
12.0
 20
9.0
  9
$ORTHOMODE
 70
     1
  9
$REGENMODE
 70
     1
  9
$FILLMODE
 70
     1
  9
$QTEXTMODE
 70
     0
  9
$MIRRTEXT
 70
     0
  9
$DRAGMODE
 70
     2
  9
$LTSCALE
 40
1.0
  9
$OSMODE
 70
    37
  9
$ATTMODE
 70
     1
  9
$TEXTSIZE
 40
0.2
  9
$TRACEWID
 40
0.05
  9
$TEXTSTYLE
  7
STANDARD
  9
$CLAYER
  8
本體外線
  9
$CELTYPE
  6
BYLAYER
  9
$CECOLOR
 62
   256
  9
$DIMSCALE
 40
1.0
  9
$DIMASZ
 40
2.5
  9
$DIMEXO
 40
0.85
  9
$DIMDLI
 40
3.75
  9
$DIMRND
 40
0.0
  9
$DIMDLE
 40
0.0
  9
$DIMEXE
 40
0.85
  9
$DIMTP
 40
0.0
  9
$DIMTM
 40
0.0
  9
$DIMTXT
 40
2.5
  9
$DIMCEN
 40
2.5
  9
$DIMTSZ
 40
0.0
  9
$DIMTOL
 70
     0
  9
$DIMLIM
 70
     0
  9
$DIMTIH
 70
     0
  9
$DIMTOH
 70
     0
  9
$DIMSE1
 70
     0
  9
$DIMSE2
 70
     0
  9
$DIMTAD
 70
     1
  9
$DIMZIN
 70
     8
  9
$DIMBLK
  1
OPEN30
  9
$DIMASO
 70
     1
  9
$DIMSHO
 70
     1
  9
$DIMPOST
  1

  9
$DIMAPOST
  1

  9
$DIMALT
 70
     0
  9
$DIMALTD
 70
     3
  9
$DIMALTF
 40
0.03937007874016
  9
$DIMLFAC
 40
1.0
  9
$DIMTOFL
 70
     1
  9
$DIMTVP
 40
0.0
  9
$DIMTIX
 70
     0
  9
$DIMSOXD
 70
     0
  9
$DIMSAH
 70
     0
  9
$DIMBLK1
  1

  9
$DIMBLK2
  1

  9
$LUNITS
 70
     2
  9
$LUPREC
 70
     4
  9
$SKETCHINC
 40
0.1
  9
$FILLETRAD
 40
0.0
  9
$AUNITS
 70
     0
  9
$AUPREC
 70
     0
  9
$MENU
  1
.
  9
$ELEVATION
 40
0.0
  9
$THICKNESS
 40
0.0
  9
$LIMCHECK
 70
     0
  9
$CHAMFERA
 40
0.2
  9
$CHAMFERB
 40
0.2
  9
$SKPOLY
 70
     0
  9
$TDCREATE
 40
2454063.446717835
  9
$TDUPDATE
 40
2460773.501354884
  9
$TDINDWG
 40
0.9315947569
  9
$TDUSRTIMER
 40
0.9315943981
  9
$USRTIMER
 70
     1
  9
$ANGBASE
 50
0.0
  9
$ANGDIR
 70
     0
  9
$PDMODE
 70
     0
  9
$PDSIZE
 40
0.0
  9
$PLINEWID
 40
0.0
  9
$COORDS
 70
     1
  9
$SPLFRAME
 70
     0
  9
$SPLINETYPE
 70
     6
  9
$SPLINESEGS
 70
     8
  9
$ATTDIA
 70
     0
  9
$ATTREQ
 70
     1
  9
$HANDLING
 70
     1
  9
$HANDSEED
  5
9C77
  9
$SURFTAB1
 70
     6
  9
$SURFTAB2
 70
     6
  9
$SURFTYPE
 70
     6
  9
$SURFU
 70
     6
  9
$SURFV
 70
     6
  9
$UCSNAME
  2

  9
$UCSORG
 10
0.0
 20
0.0
 30
0.0
  9
$UCSXDIR
 10
1.0
 20
0.0
 30
0.0
  9
$UCSYDIR
 10
0.0
 20
1.0
 30
0.0
  9
$USERI1
 70
     0
  9
$USERI2
 70
     0
  9
$USERI3
 70
     0
  9
$USERI4
 70
     0
  9
$USERI5
 70
     0
  9
$USERR1
 40
0.0
  9
$USERR2
 40
0.0
  9
$USERR3
 40
0.0
  9
$USERR4
 40
0.0
  9
$USERR5
 40
0.0
  9
$WORLDVIEW
 70
     1
  0
ENDSEC
  0
SECTION
  2
TABLES
  0
TABLE
  2
VPORT
 70
     1
  0
VPORT
  2
*ACTIVE
 70
     0
 10
0.0
 20
0.0
 11
1.0
 21
1.0
 12
227.143960138514
 22
281.7555431512799
 13
0.0
 23
0.0
 14
0.5
 24
0.5
 15
0.5
 25
0.5
 16
0.0
 26
0.0
 36
1.0
 17
51.99745649755143
 27
-186.755542213509
 37
-88.64089380188095
 40
317.8063237267897
 41
1.764004767580453
 42
50.0
 43
0.0
 44
0.0
 50
0.0
 51
0.0
 71
     0
 72
  1000
 73
     1
 74
     3
 75
     0
 76
     0
 77
     0
 78
     0
  0
ENDTAB
  0
TABLE
  2
LTYPE
 70
    18
  0
LTYPE
  2
CONTINUOUS
 70
     0
  3
Solid line
 72
    65
 73
     0
 40
0.0
  0
LTYPE
  2
ACAD_ISO08W100
 70
     0
  3
ISO long-dash short-dash ____ __ ____ __ ____ _
 72
    65
 73
     4
 40
36.0
 49
24.0
 49
-3.0
 49
6.0
 49
-3.0
  0
LTYPE
  2
HIDDEN2
 70
     0
  3
Hidden (.5x) _ _ _ _ _ _ _ _ _ _ _ _ _ _ _ _ _
 72
    65
 73
     2
 40
4.762499999999999
 49
3.175
 49
-1.5875
  0
LTYPE
  2
CENTER
 70
     0
  3
Center ____ _ ____ _ ____ _ ____ _ ____ _ ____
 72
    65
 73
     4
 40
2.0
 49
1.25
 49
-0.25
 49
0.25
 49
-0.25
  0
LTYPE
  2
CENTER2
 70
     0
  3
Center (.5x) ___ _ ___ _ ___ _ ___ _ ___ _ ___
 72
    65
 73
     4
 40
1.125
 49
0.75
 49
-0.125
 49
0.125
 49
-0.125
  0
LTYPE
  2
HIDDEN
 70
     0
  3
Hidden __ __ __ __ __ __ __ __ __ __ __ __ __ _
 72
    65
 73
     2
 40
0.375
 49
0.25
 49
-0.125
  0
LTYPE
  2
PHANTOM2
 70
     0
  3
Phantom (.5x) ___ _ _ ___ _ _ ___ _ _ ___ _ _
 72
    65
 73
     6
 40
1.25
 49
0.625
 49
-0.125
 49
0.125
 49
-0.125
 49
0.125
 49
-0.125
  0
LTYPE
  2
AM_ISO02W050
 70
     0
  3
__ __ __ __ __ __ __ __ __ __ __ __ __ __ __
 72
    65
 73
     2
 40
7.5
 49
6.0
 49
-1.5
  0
LTYPE
  2
AM_ISO08W050
 70
     0
  3
____ . ____ . ____ . ____ . ____ . ____ . ____
 72
    65
 73
     4
 40
18.0
 49
12.0
 49
-1.5
 49
3.0
 49
-1.5
  0
LTYPE
  2
AM_ISO09W050
 70
     0
  3
_____ . . _____ . . _____ . . ____ .. ____
 72
    65
 73
     6
 40
22.5
 49
12.0
 49
-1.5
 49
3.0
 49
-1.5
 49
3.0
 49
-1.5
  0
LTYPE
  2
AMCONSTR
 70
     0
  3
_______________________
 72
    65
 73
     2
 40
9999.0
 49
9999.0
 49
0.0
  0
LTYPE
  2
AM_ISO08W050X2
 70
     0
  3
__ . __ . __ . __ . __ . __
 72
    65
 73
     4
 40
9.0
 49
6.0
 49
-0.75
 49
1.5
 49
-0.75
  0
LTYPE
  2
AM_ISO02W050X2
 70
     0
  3
 _ _ _ _ _ _ _ _ _ _ _ _
 72
    65
 73
     2
 40
3.75
 49
3.0
 49
-0.75
  0
LTYPE
  2
AMZIGZAG
 70
     0
  3
/\/-/\/-/\/-/\/-/\/-/\/
 72
    65
 73
     2
 40
11.0001
 49
0.0001
 49
-11.0
  0
LTYPE
  2
AMZIGZAG2
 70
     0
  3
/\/-/\/-/\/-/\/-/\/-/\/
 72
    65
 73
     2
 40
0.4401
 49
0.0001
 49
-0.44
  0
LTYPE
  2
ACANSTGB
 70
     0
  3
__ . . __ . .
 72
    65
 73
     6
 40
0.35433070866
 49
0.15748031496
 49
-0.03937007874
 49
0.03937007874
 49
-0.03937007874
 49
0.03937007874
 49
-0.03937007874
  0
LTYPE
  2
ACANSTGL
 70
     0
  3
_ _ _ _ _
 72
    65
 73
     2
 40
0.11811023622
 49
0.07874015748
 49
-0.03937007874
  0
LTYPE
  2
CENTERX2
 70
     0
  3
Center (2x) ________  __  ________  __  _____
 72
    65
 73
     4
 40
101.6
 49
63.5
 49
-12.7
 49
12.7
 49
-12.7
  0
ENDTAB
  0
TABLE
  2
LAYER
 70
    24
  0
LAYER
  2
0
 70
     0
 62
     7
  6
CONTINUOUS
  0
LAYER
  2
DEFPOINTS
 70
     0
 62
     7
  6
CONTINUOUS
  0
LAYER
  2
CONTOUR
 70
     0
 62
     2
  6
CONTINUOUS
  0
LAYER
  2
BOWEL
 70
     2
 62
     4
  6
HIDDEN2
  0
LAYER
  2
CENTER
 70
     0
 62
     1
  6
CENTER
  0
LAYER
  2
MARK
 70
     0
 62
     6
  6
CONTINUOUS
  0
LAYER
  2
FRAME
 70
     0
 62
     9
  6
CONTINUOUS
  0
LAYER
  2
DIM
 70
     0
 62
     3
  6
CONTINUOUS
  0
LAYER
  2
SECTION
 70
     0
 62
     5
  6
CONTINUOUS
  0
LAYER
  2
PV-96D
 70
     2
 62
     7
  6
CONTINUOUS
  0
LAYER
  2
PH-96D
 70
     2
 62
     7
  6
CONTINUOUS
  0
LAYER
  2
本體外線
 70
     0
 62
     2
  6
CONTINUOUS
  0
LAYER
  2
中心線
 70
     0
 62
     1
  6
CENTER2
  0
LAYER
  2
2
 70
     0
 62
     7
  6
CONTINUOUS
  0
LAYER
  2
5
 70
     0
 62
     3
  6
CONTINUOUS
  0
LAYER
  2
\M+19557\M+19290
 70
     0
 62
     6
  6
CONTINUOUS
  0
LAYER
  2
\M+19557\M+19290\M+190FC
 70
     0
 62
     6
  6
CONTINUOUS
  0
LAYER
  2
\M+195B6\M+18E9A
 70
     0
 62
     6
  6
CONTINUOUS
  0
LAYER
  2
-
 70
     0
 62
     8
  6
CONTINUOUS
  0
LAYER
  2
DM
 70
     0
 62
     3
  6
CONTINUOUS
  0
LAYER
  2
\M+19AA4\M+191774
 70
     0
 62
     6
  6
CONTINUOUS
  0
LAYER
  2
_框線
 70
     0
 62
     9
  6
CONTINUOUS
  0
LAYER
  2
剖面線
 70
     0
 62
     5
  6
CONTINUOUS
  0
LAYER
  2
本體內線
 70
     0
 62
     4
  6
HIDDEN2
  0
ENDTAB
  0
TABLE
  2
STYLE
 70
    10
  0
STYLE
  2
STANDARD
 70
     0
 40
0.0
 41
1.0
 50
0.0
 71
     0
 42
0.2
  3
txt.shx
  4
bigfont.shx
  0
STYLE
  2

 70
     1
 40
0.0
 41
1.0
 50
0.0
 71
     0
 42
0.2
  3
ltypeshp.shx
  4

  0
STYLE
  2
TW
 70
     0
 40
0.0
 41
1.0
 50
0.0
 71
     0
 42
1.0
  3
txt.shx
  4
chineset.shx
  0
STYLE
  2
CN
 70
     0
 40
0.0
 41
1.0
 50
0.0
 71
     0
 42
6.0
  3
txt.shx
  4
gbcbig.shx
  0
STYLE
  2
A
 70
     0
 40
1.0
 41
1.0
 50
0.0
 71
     0
 42
2.5
  3
MS Mincho.ttf
  4

  0
STYLE
  2
JL
 70
     0
 40
6.0
 41
1.0
 50
0.0
 71
     0
 42
6.0
  3
MS Mincho.ttf
  4

  0
STYLE
  2

 70
     1
 40
0.0
 41
1.0
 50
0.0
 71
     0
 42
0.2
  3
genltshp.shx
  4

  0
STYLE
  2
ACANSTS
 70
     0
 40
1.0
 41
1.0
 50
0.0
 71
     0
 42
0.2
  3
romans.shx
  4
chineset.shx
  0
STYLE
  2
ACANSGDT
 70
     0
 40
0.0
 41
1.0
 50
0.0
 71
     0
 42
0.2
  3
amgdt.shx
  4

  0
STYLE
  2
LKK
 70
     0
 40
50.0
 41
1.5
 50
0.0
 71
     0
 42
50.0
  3
MS PGothic.ttf
  4

  0
ENDTAB
  0
TABLE
  2
VIEW
 70
     0
  0
ENDTAB
  0
TABLE
  2
UCS
 70
     0
  0
ENDTAB
  0
ENDSEC
  0
SECTION
  2
BLOCKS
  0
BLOCK
  8
0
  2
84722A
 70
     0
 10
0.0
 20
0.0
 30
0.0
  0
LINE
  5
8BE
  8
CONTOUR
 10
2268.035704829103
 20
2028.892792652738
 30
0.0
 11
2249.935704829104
 21
2028.892792652738
 31
0.0
  0
ARC
  5
8BF
  8
CONTOUR
 10
2254.485704829104
 20
2039.609489310099
 30
0.0
 40
8.0
 50
180.0
 51
200.3988217494654
  0
LINE
  5
8C0
  8
CONTOUR
 10
2249.935704829104
 20
2028.892792652738
 30
0.0
 11
2246.98739156949
 21
2036.821067128882
 31
0.0
  0
LINE
  5
8C1
  8
CONTOUR
 10
2246.485704829104
 20
2039.609489310099
 30
0.0
 11
2246.485704829104
 21
2042.942792652738
 31
0.0
  0
LINE
  5
8C2
  8
CONTOUR
 10
2249.935704829104
 20
2028.892792652738
 30
0.0
 11
2249.935704829104
 21
2025.444516644258
 31
0.0
  0
ARC
  5
8C3
  8
CONTOUR
 10
2247.485704829104
 20
2042.942792652738
 30
0.0
 40
1.0
 50
90.0
 51
180.0
  0
LINE
  5
8C4
  8
CONTOUR
 10
2268.035704829103
 20
2028.892792652738
 30
0.0
 11
2268.035704829103
 21
2025.444516644258
 31
0.0
  0
ARC
  5
8C5
  8
CONTOUR
 10
2258.985704829104
 20
2015.292792652738
 30
0.0
 40
13.6
 50
6.968493370260704
 51
173.0315066297402
  0
ARC
  5
8C6
  8
CONTOUR
 10
2258.985704829104
 20
2015.292792652738
 30
0.0
 40
13.6
 50
186.9684933702598
 51
353.0315066297402
  0
LINE
  5
8C7
  8
CONTOUR
 10
2250.835704829104
 20
1998.902785520065
 30
0.0
 11
2250.835704829104
 21
2004.405299828401
 31
0.0
  0
LINE
  5
8C8
  8
CONTOUR
 10
2267.135704829104
 20
1998.902785520066
 30
0.0
 11
2267.135704829104
 21
2004.405299828401
 31
0.0
  0
ARC
  5
8C9
  8
CONTOUR
 10
2258.985704829104
 20
1991.892792652737
 30
0.0
 40
10.75
 50
139.3004567779205
 51
210.77232476795
  0
ARC
  5
8CA
  8
CONTOUR
 10
2258.985704829104
 20
1991.892792652737
 30
0.0
 40
10.75
 50
329.22767523205
 51
40.69954322207952
  0
LINE
  5
8CB
  8
CONTOUR
 10
2268.222181430059
 20
1986.392792652737
 30
0.0
 11
2249.749228228149
 21
1986.392792652737
 31
0.0
  0
LINE
  5
8CC
  8
CONTOUR
 10
2267.135704829104
 20
1998.902785520065
 30
0.0
 11
2250.835704829104
 21
1998.902785520065
 31
0.0
  0
LINE
  5
8CD
  8
CONTOUR
 10
2270.485704829104
 20
2043.942792652738
 30
0.0
 11
2247.485704829104
 21
2043.942792652738
 31
0.0
  0
ARC
  5
8CE
  8
CONTOUR
 10
2263.485704829104
 20
2039.609489310099
 30
0.0
 40
8.0
 50
339.601178250543
 51
0.000000000000007
  0
LINE
  5
8CF
  8
CONTOUR
 10
2268.035704829104
 20
2028.892792652738
 30
0.0
 11
2270.984018088717
 21
2036.821067128882
 31
0.0
  0
LINE
  5
8D0
  8
CONTOUR
 10
2271.485704829104
 20
2039.609489310099
 30
0.0
 11
2271.485704829104
 21
2042.942792652738
 31
0.0
  0
ARC
  5
8D1
  8
CONTOUR
 10
2270.485704829104
 20
2042.942792652738
 30
0.0
 40
1.0
 50
0.000000000000007
 51
90.0
  0
LINE
  5
8D2
  8
CONTOUR
 10
2241.985704829104
 20
2013.642792652738
 30
0.0
 11
2275.985704829104
 21
2013.642792652738
 31
0.0
  0
LINE
  5
8D3
  8
CONTOUR
 10
2241.985704829104
 20
2016.942792652738
 30
0.0
 11
2275.985704829104
 21
2016.942792652738
 31
0.0
  0
LINE
  5
8D4
  8
CONTOUR
 10
2240.985704829104
 20
2014.642792652738
 30
0.0
 11
2240.985704829104
 21
2015.942792652738
 31
0.0
  0
ARC
  5
8D5
  8
CONTOUR
 10
2241.985704829104
 20
2014.642792652738
 30
0.0
 40
1.0
 50
180.0
 51
270.0
  0
ARC
  5
8D6
  8
CONTOUR
 10
2241.985704829104
 20
2015.942792652738
 30
0.0
 40
1.0
 50
90.0
 51
180.0
  0
LINE
  5
8D7
  8
CONTOUR
 10
2276.985704829104
 20
2014.642792652738
 30
0.0
 11
2276.985704829104
 21
2015.942792652738
 31
0.0
  0
ARC
  5
8D8
  8
CONTOUR
 10
2275.985704829104
 20
2014.642792652738
 30
0.0
 40
1.0
 50
270.0
 51
0.0
  0
ARC
  5
8D9
  8
CONTOUR
 10
2275.985704829104
 20
2015.942792652738
 30
0.0
 40
1.0
 50
0.0
 51
90.0000000000005
  0
ENDBLK
  8
0
  0
BLOCK
  8
0
  2
_OPEN30
 70
     0
 10
0.0
 20
0.0
 30
0.0
  0
LINE
  5
8DD
  8
0
  6
BYBLOCK
 62
     0
 10
-1.0
 20
0.26794919
 30
0.0
 11
0.0
 21
0.0
 31
0.0
  0
LINE
  5
8DE
  8
0
  6
BYBLOCK
 62
     0
 10
0.0
 20
0.0
 30
0.0
 11
-1.0
 21
-0.26794919
 31
0.0
  0
LINE
  5
8DF
  8
0
  6
BYBLOCK
 62
     0
 10
0.0
 20
0.0
 30
0.0
 11
-1.0
 21
0.0
 31
0.0
  0
ENDBLK
  8
0
  0
BLOCK
  8
0
  2
*U3
 70
     1
 10
0.0
 20
0.0
 30
0.0
  0
ENDBLK
  8
0
  0
BLOCK
  8
0
  2
*U4
 70
     1
 10
0.0
 20
0.0
 30
0.0
  0
ENDBLK
  8
0
  0
BLOCK
  8
0
  2
A$C501B6825
 70
     0
 10
0.0
 20
0.0
 30
0.0
  0
INSERT
  5
B2D
  8
CONTOUR
  2
84722A
 10
-2240.985707363333
 20
-1986.392794206717
 30
0.0
  0
ENDBLK
  8
0
  0
BLOCK
  8
0
  2
_DOTSMALL
 70
     0
 10
0.0
 20
0.0
 30
0.0
  0
POLYLINE
  5
19A0
  8
0
  6
BYBLOCK
 62
     0
 66
     1
 10
0.0
 20
0.0
 30
0.0
 70
     1
 40
0.5
 41
0.5
  0
VERTEX
  5
9C68
  8
0
  6
BYBLOCK
 62
     0
 10
-0.0625
 20
0.0
 30
0.0
 42
1.0
  0
VERTEX
  5
9C69
  8
0
  6
BYBLOCK
 62
     0
 10
0.0625
 20
0.0
 30
0.0
 42
1.0
  0
SEQEND
  5
9C76
  8
0
  6
BYBLOCK
 62
     0
  0
ENDBLK
  8
0
  0
BLOCK
  8
0
  2
84722
 70
     0
 10
0.0
 20
0.0
 30
0.0
  0
LINE
  5
1E90
  8
CONTOUR
 10
-156.6423078242061
 20
118.5615862273692
 30
0.0
 11
-165.1060339475227
 21
121.5540381546975
 31
0.0
  0
ARC
  5
1E91
  8
CONTOUR
 10
-170.6923078242063
 20
98.01158622736902
 30
0.0
 40
1.0
 50
180.0
 51
270.0
  0
LINE
  5
1E92
  8
CONTOUR
 10
-167.3590044815666
 20
97.01158622736925
 30
0.0
 11
-170.6923078242063
 21
97.01158622736902
 31
0.0
  0
ARC
  5
1E93
  8
CONTOUR
 10
-167.3590044815667
 20
105.0115862273692
 30
0.0
 40
8.0
 50
270.0
 51
290.3988217494716
  0
LINE
  5
1E94
  8
CONTOUR
 10
-156.6423078242061
 20
100.4615862273691
 30
0.0
 11
-164.5705823003495
 21
97.51327296775564
 31
0.0
  0
ARC
  5
1E95
  8
CONTOUR
 10
-170.6923078242063
 20
121.0115862273691
 30
0.0
 40
1.0
 50
90.0
 51
180.0
  0
LINE
  5
1E96
  8
CONTOUR
 10
-167.7727583284701
 20
122.0115862273692
 30
0.0
 11
-170.6923078242063
 21
122.0115862273691
 31
0.0
  0
ARC
  5
1E97
  8
CONTOUR
 10
-167.77275832847
 20
114.0115862273692
 30
0.0
 40
8.0
 50
70.52834094305844
 51
90.0
  0
LINE
  5
1E98
  8
CONTOUR
 10
-129.4423078242063
 20
96.86158622736916
 30
0.0
 11
-156.6423078242061
 21
96.86158622736916
 31
0.0
  0
LINE
  5
1E99
  8
CONTOUR
 10
-129.4423078242063
 20
122.1615862273691
 30
0.0
 11
-156.6423078242061
 21
122.1615862273691
 31
0.0
  0
LINE
  5
1E9A
  8
CONTOUR
 10
-129.4423078242061
 20
117.6615862273691
 30
0.0
 11
-129.4423078242063
 21
122.1615862273691
 31
0.0
  0
ARC
  5
1E9B
  8
CONTOUR
 10
-119.6423078242061
 20
109.5115862273691
 30
0.0
 40
10.75
 50
59.22767523205476
 51
130.6995432220788
  0
LINE
  5
1E9C
  8
CONTOUR
 10
-114.1423078242061
 20
118.7480628283247
 30
0.0
 11
-114.1423078242061
 21
100.2751096264138
 31
0.0
  0
ARC
  5
1E9D
  8
CONTOUR
 10
-119.6423078242061
 20
109.5115862273696
 30
0.0
 40
10.75
 50
229.3004567779212
 51
300.7723247679452
  0
LINE
  5
1E9E
  8
CONTOUR
 10
-126.6523006915344
 20
101.3615862273692
 30
0.0
 11
-129.4423078242055
 21
101.361586227369
 31
0.0
  0
LINE
  5
1E9F
  8
CONTOUR
 10
-129.4423078242061
 20
96.86158622736916
 30
0.0
 11
-129.4423078242061
 21
101.3615862273689
 31
0.0
  0
LINE
  5
1EA0
  8
CONTOUR
 10
-126.6523006915349
 20
117.6615862273691
 30
0.0
 11
-129.4423078242061
 21
117.6615862273691
 31
0.0
  0
LINE
  5
1EA1
  8
CONTOUR
 10
-142.0705708933461
 20
124.911586227369
 30
0.0
 11
-129.9423078242063
 21
124.911586227369
 31
0.0
  0
LINE
  5
1EA2
  8
CONTOUR
 10
-156.1423078242061
 20
124.911586227369
 30
0.0
 11
-144.0140447550663
 21
124.911586227369
 31
0.0
  0
LINE
  5
1EA3
  8
CONTOUR
 10
-156.6423078242061
 20
122.3115862273691
 30
0.0
 11
-129.4423078242063
 21
122.3115862273691
 31
0.0
  0
LINE
  5
1EA4
  8
CONTOUR
 10
-156.6423078242061
 20
122.3115862273691
 30
0.0
 11
-156.6423078242061
 21
124.411586227369
 31
0.0
  0
ARC
  5
1EA5
  8
CONTOUR
 10
-156.1423078242061
 20
124.411586227369
 30
0.0
 40
0.5
 50
90.0
 51
180.0
  0
LINE
  5
1EA6
  8
CONTOUR
 10
-129.4423078242063
 20
122.3115862273691
 30
0.0
 11
-129.4423078242063
 21
124.411586227369
 31
0.0
  0
ARC
  5
1EA7
  8
CONTOUR
 10
-129.9423078242063
 20
124.411586227369
 30
0.0
 40
0.5
 50
0.0
 51
90.0
  0
LINE
  5
1EA8
  8
CONTOUR
  6
CONTINUOUS
 10
-154.6423078242061
 20
94.0115862273693
 30
0.0
 11
-131.4423078242063
 21
94.0115862273693
 31
0.0
  0
LINE
  5
1EA9
  8
CONTOUR
  6
CONTINUOUS
 10
-156.6423078242062
 20
96.81158622736932
 30
0.0
 11
-129.4423078242063
 21
96.81158622736932
 31
0.0
  0
LINE
  5
1EAA
  8
CONTOUR
  6
CONTINUOUS
 10
-156.6423078242062
 20
96.0115862273693
 30
0.0
 11
-156.6423078242062
 21
96.81158622736932
 31
0.0
  0
ARC
  5
1EAB
  8
CONTOUR
  6
CONTINUOUS
 10
-154.6423078242061
 20
96.0115862273693
 30
0.0
 40
2.0
 50
180.0
 51
270.0
  0
LINE
  5
1EAC
  8
CONTOUR
  6
CONTINUOUS
 10
-129.4423078242063
 20
96.0115862273693
 30
0.0
 11
-129.4423078242063
 21
96.81158622736932
 31
0.0
  0
ARC
  5
1EAD
  8
CONTOUR
  6
CONTINUOUS
 10
-131.4423078242063
 20
96.0115862273693
 30
0.0
 40
2.0
 50
270.0
 51
0.0
  0
LINE
  5
1EAE
  8
CONTOUR
 10
-156.642307824206
 20
122.1615862273691
 30
0.0
 11
-156.642307824206
 21
96.86158622736916
 31
0.0
  0
ARC
  5
1EAF
  8
CONTOUR
 10
-143.0423511382205
 20
123.161586227369
 30
0.0
 40
0.8
 50
180.0
 51
0.0
  0
ARC
  5
1EB0
  8
CONTOUR
 10
-143.0436543144247
 20
136.6055672883137
 30
0.0
 40
1.669670154811487
 50
0.0
 51
180.0
  0
LINE
  5
1EB1
  8
CONTOUR
 10
-144.7133244692361
 20
136.6055672883137
 30
0.0
 11
-143.8423511382205
 21
123.161586227369
 31
0.0
  0
LINE
  5
1EB2
  8
CONTOUR
 10
-142.2423511382206
 20
123.161586227369
 30
0.0
 11
-141.3739841596132
 21
136.6055672883137
 31
0.0
  0
LINE
  5
1EB3
  8
CONTOUR
 10
-126.6523006915346
 20
117.6615862273694
 30
0.0
 11
-126.6523006915344
 21
101.3615862273692
 31
0.0
  0
ARC
  5
1EB4
  8
CONTOUR
 10
-118.55481499987
 20
109.511586227369
 30
0.0
 40
13.59999999999893
 50
143.1827457852956
 51
216.8172542147044
  0
ARC
  5
1EB5
  8
CONTOUR
 10
-166.7940318157262
 20
109.5115862273692
 30
0.0
 40
13.6000000000002
 50
318.2838198466958
 51
41.71618015330415
  0
LINE
  5
1EB6
  8
CONTOUR
 10
-171.6923078242063
 20
121.0115862273691
 30
0.0
 11
-171.6923078242063
 21
98.01158622736902
 31
0.0
  0
ENDBLK
  8
0
  0
BLOCK
  8
0
  2
22
 70
     0
 10
0.0
 20
0.0
 30
0.0
  0
ARC
  5
2001
  8
0
 10
992.0303278827951
 20
333.8369074230714
 30
0.0
 40
10.75
 50
139.3004066340999
 51
210.7103126651758
  0
ARC
  5
2002
  8
0
 10
992.030327882795
 20
333.8369074230714
 30
0.0
 40
10.75
 50
329.2896873348194
 51
40.69959336590014
  0
LINE
  5
2003
  8
0
 10
1006.030327882795
 20
382.3469074230713
 30
0.0
 11
978.030327882795
 21
382.3469074230713
 31
0.0
  0
LINE
  5
2004
  8
0
 10
980.5303278827953
 20
385.8469074230713
 30
0.0
 11
1003.530327882795
 21
385.8469074230716
 31
0.0
  0
LINE
  5
2005
  8
0
 10
1004.530327882795
 20
333.8469074230713
 30
0.0
 11
979.5303278827948
 21
333.8469074230713
 31
0.0
  0
LINE
  5
2006
  8
0
 39
1.0
 10
976.4303278827949
 20
357.3469074230713
 30
0.0
 11
1007.630327882795
 21
357.3469074230713
 31
0.0
  0
LINE
  5
2007
  8
0
 10
983.0303340177668
 20
370.8469074230716
 30
0.0
 11
980.1506205909761
 21
378.7582312848085
 31
0.0
  0
LINE
  5
2008
  8
0
 10
979.5303278827951
 20
384.8469074230711
 30
0.0
 11
979.5303278827951
 21
381.8469074230713
 31
0.0
  0
ARC
  5
2009
  8
0
 10
980.5303278827953
 20
384.8469074230713
 30
0.0
 40
1.0
 50
90.0
 51
180.0
  0
ARC
  5
200A
  8
0
 10
987.5303278827951
 20
381.8469074230713
 30
0.0
 40
8.0
 50
180.0
 51
202.7110849360662
  0
LINE
  5
200B
  8
0
 10
983.8803340177669
 20
340.8469074230716
 30
0.0
 11
983.8803340177669
 21
343.8469074230713
 31
0.0
  0
LINE
  5
200C
  8
0
 10
1001.030321747823
 20
370.8469074230713
 30
0.0
 11
1003.910035174614
 21
378.7582312848085
 31
0.0
  0
LINE
  5
200D
  8
0
 10
1004.530327882795
 20
384.8469074230711
 30
0.0
 11
1004.530327882795
 21
381.8469074230713
 31
0.0
  0
ARC
  5
200E
  8
0
 10
1003.530327882795
 20
384.8469074230711
 30
0.0
 40
1.0
 50
0.0
 51
90.0
  0
ARC
  5
200F
  8
0
 10
996.5303278827951
 20
381.8469074230713
 30
0.0
 40
8.0
 50
337.2889150639334
 51
0.0
  0
LINE
  5
2010
  8
0
 10
1000.180321747823
 20
340.8469074230713
 30
0.0
 11
1000.180321747823
 21
343.8469074230713
 31
0.0
  0
LINE
  5
2011
  8
0
 10
982.7879039583042
 20
328.3469074230716
 30
0.0
 11
1001.272751807286
 21
328.3469074230711
 31
0.0
  0
LINE
  5
2012
  8
0
 10
979.380327882795
 20
343.8469074230713
 30
0.0
 11
983.8803340177669
 21
343.8469074230713
 31
0.0
  0
LINE
  5
2013
  8
0
 10
979.3803278827951
 20
370.8469074230713
 30
0.0
 11
983.0303340177668
 21
370.8469074230713
 31
0.0
  0
LINE
  5
2014
  8
0
 10
1004.680327882795
 20
370.8469074230713
 30
0.0
 11
1004.680327882795
 21
343.8469074230713
 31
0.0
  0
LINE
  5
2015
  8
0
 10
979.3803278827951
 20
370.8469074230713
 30
0.0
 11
979.380327882795
 21
343.8469074230713
 31
0.0
  0
LINE
  5
2016
  8
0
 10
1000.180321747823
 20
343.8469074230713
 30
0.0
 11
1004.680327882795
 21
343.8469074230713
 31
0.0
  0
LINE
  5
2017
  8
0
 10
1001.030321747823
 20
370.8469074230713
 30
0.0
 11
1004.680327882795
 21
370.8469074230713
 31
0.0
  0
LINE
  5
2018
  8
0
 10
1000.180321747823
 20
340.8469074230713
 30
0.0
 11
983.8803340177667
 21
340.8469074230713
 31
0.0
  0
LINE
  5
2019
  8
0
 10
1001.030321747823
 20
370.8469074230713
 30
0.0
 11
983.0303340177669
 21
370.8469074230713
 31
0.0
  0
ARC
  5
201A
  8
0
 10
992.0303278827948
 20
338.9267296452938
 30
0.0
 40
9.520007844793556
 50
31.1195167813697
 51
148.8804832186244
  0
LINE
  5
201B
  8
0
 10
975.4303278827949
 20
357.3469074230713
 30
0.0
 11
1020.430327882795
 21
357.3469074230713
 31
0.0
  0
LINE
  5
201C
  8
0
 10
1017.930327882794
 20
340.3469074230713
 30
0.0
 11
1007.430327882795
 21
340.3469074230713
 31
0.0
  0
LINE
  5
201D
  8
0
 10
1017.930327882795
 20
374.3469074230716
 30
0.0
 11
1007.430327882794
 21
374.3469074230713
 31
0.0
  0
LINE
  5
201E
  8
0
 10
1007.430327882795
 20
370.1469074230715
 30
0.0
 11
1007.430327882795
 21
344.5469074230716
 31
0.0
  0
LINE
  5
201F
  8
0
 10
1007.430327882794
 20
358.3186443539314
 30
0.0
 11
1007.430327882795
 21
370.4469074230713
 31
0.0
  0
LINE
  5
2020
  8
0
 10
1004.830327882795
 20
343.7469074230712
 30
0.0
 11
1004.830327882795
 21
370.9469074230713
 31
0.0
  0
LINE
  5
2021
  8
0
 10
1005.930327882795
 20
372.8469074230713
 30
0.0
 11
1005.930327882795
 21
370.9469074230713
 31
0.0
  0
LINE
  5
2022
  8
0
 10
1004.830327882795
 20
370.9469074230713
 30
0.0
 11
1006.930327882795
 21
370.9469074230713
 31
0.0
  0
ARC
  5
2023
  8
0
 10
1006.930327882795
 20
370.4469074230713
 30
0.0
 40
0.5
 50
0.0
 51
90.0
  0
ARC
  5
2024
  8
0
 10
1007.430327882794
 20
372.8469074230713
 30
0.0
 40
1.5
 50
90.0
 51
180.0
  0
LINE
  5
2025
  8
0
 10
1004.680327882795
 20
365.6469074230714
 30
0.0
 11
1004.830327882795
 21
365.6469074230713
 31
0.0
  0
ARC
  5
2026
  8
0
 10
1007.430327882795
 20
341.8469074230713
 30
0.0
 40
1.5
 50
180.0
 51
270.0
  0
LINE
  5
2027
  8
0
 10
1004.830327882795
 20
343.7469074230712
 30
0.0
 11
1006.930327882794
 21
343.7469074230712
 31
0.0
  0
LINE
  5
2028
  8
0
 10
1007.430327882794
 20
344.2469074230712
 30
0.0
 11
1007.430327882795
 21
358.3186443539314
 31
0.0
  0
ARC
  5
2029
  8
0
 10
1006.930327882794
 20
344.2469074230712
 30
0.0
 40
0.5
 50
270.0
 51
0.0
  0
LINE
  5
202A
  8
0
 10
1005.930327882795
 20
343.7469074230712
 30
0.0
 11
1005.930327882795
 21
341.8469074230713
 31
0.0
  0
LINE
  5
202B
  8
0
 10
1004.680327882795
 20
349.0469074230714
 30
0.0
 11
1004.830327882795
 21
349.0469074230714
 31
0.0
  0
LINE
  5
202C
  8
0
 10
1004.680327882795
 20
356.3469074230713
 30
0.0
 11
1004.830327882795
 21
356.3469074230713
 31
0.0
  0
LINE
  5
202D
  8
0
 10
1004.680327882795
 20
358.3469074230713
 30
0.0
 11
1004.830327882795
 21
358.3469074230713
 31
0.0
  0
LINE
  5
202E
  8
0
 10
1019.430327882795
 20
372.8469074230711
 30
0.0
 11
1019.430327882795
 21
341.8469074230713
 31
0.0
  0
ARC
  5
202F
  8
0
 10
1017.930327882795
 20
372.8469074230716
 30
0.0
 40
1.5
 50
359.9999999999935
 51
90.0
  0
ARC
  5
2030
  8
0
 10
1017.930327882794
 20
341.8469074230713
 30
0.0
 40
1.5
 50
270.0
 51
359.9999999999935
  0
LINE
  5
2031
  8
0
 10
979.1803278827945
 20
370.846907423071
 30
0.0
 11
979.1803278827945
 21
343.8469074230712
 31
0.0
  0
LINE
  5
2032
  8
0
 10
976.3803278827945
 20
368.946907423071
 30
0.0
 11
976.3803278827945
 21
345.8469074230712
 31
0.0
  0
ARC
  5
2033
  8
0
 10
978.3803278827945
 20
368.846907423071
 30
0.0
 40
2.0
 50
90.0
 51
180.0
  0
LINE
  5
2034
  8
0
 10
978.3803278827945
 20
370.846907423071
 30
0.0
 11
979.1803278827945
 21
370.846907423071
 31
0.0
  0
ARC
  5
2035
  8
0
 10
978.3803278827945
 20
345.8469074230712
 30
0.0
 40
2.0
 50
180.0
 51
270.0
  0
LINE
  5
2036
  8
0
 10
978.3803278827945
 20
343.8469074230712
 30
0.0
 11
979.1803278827945
 21
343.8469074230712
 31
0.0
  0
ENDBLK
  8
0
  0
BLOCK
  8
0
  2
46
 70
     0
 10
0.0
 20
0.0
 30
0.0
  0
LINE
  5
20EF
  8
0
 39
30.0
 10
956.5557130314842
 20
443.9052698692281
 30
0.0
 11
956.5557130314698
 21
452.2291451001558
 31
0.0
  0
LINE
  5
20F0
  8
0
 39
30.0
 10
956.0557130314835
 20
444.2284668637585
 30
0.0
 11
956.0557130314698
 21
452.2291451001549
 31
0.0
  0
LINE
  5
20F1
  8
0
 39
30.0
 10
956.5557130314698
 20
460.5530203310834
 30
0.0
 11
956.5557130314698
 21
452.2291451001558
 31
0.0
  0
LINE
  5
20F2
  8
0
 39
30.0
 10
956.0557130314698
 20
460.2284668637594
 30
0.0
 11
956.0557130314698
 21
452.2291451001558
 31
0.0
  0
LINE
  5
20F3
  8
0
 39
44.99954549554504
 10
976.0557130314698
 20
461.1501427334071
 30
0.0
 11
974.0557130314698
 21
461.150142733407
 31
0.0
  0
LINE
  5
20F4
  8
0
 39
44.99954549554504
 10
976.0557130314698
 20
453.150142734287
 30
0.0
 11
974.0557130314698
 21
453.150142734287
 31
0.0
  0
LINE
  5
20F5
  8
0
 39
44.99954549554504
 10
976.0557130314698
 20
461.1501427334071
 30
0.0
 11
976.0557130314698
 21
453.150142734287
 31
0.0
  0
LINE
  5
20F6
  8
0
 39
44.99954549554504
 10
976.0557130314698
 20
443.3081474669045
 30
0.0
 11
976.0557130314698
 21
451.3081474660245
 31
0.0
  0
LINE
  5
20F7
  8
0
 39
44.99954549554504
 10
976.0557130314698
 20
451.3081474660244
 30
0.0
 11
974.0557130314698
 21
451.3081474660246
 31
0.0
  0
LINE
  5
20F8
  8
0
 39
44.99954549554504
 10
976.0557130314698
 20
443.3081474669045
 30
0.0
 11
974.0557130314698
 21
443.3081474669045
 31
0.0
  0
LINE
  5
20F9
  8
0
 10
971.065713031483
 20
443.7365838698451
 30
0.0
 11
956.5557130314842
 21
443.9052698692281
 31
0.0
  0
LINE
  5
20FA
  8
0
 10
971.0657130314685
 20
460.7217063304914
 30
0.0
 11
956.5557130314698
 21
460.5530203310834
 31
0.0
  0
LINE
  5
20FB
  8
0
 10
956.0557130314835
 20
444.2284668637585
 30
0.0
 11
956.5557130314835
 21
444.2284668637594
 31
0.0
  0
LINE
  5
20FC
  8
0
 10
956.0557130314698
 20
460.2284668637594
 30
0.0
 11
956.5557130314698
 21
460.2284668637594
 31
0.0
  0
LINE
  5
20FD
  8
0
 39
30.0
 10
971.0557130314698
 20
461.7284668637597
 30
0.0
 11
971.0557130314698
 21
442.7284668637595
 31
0.0
  0
LINE
  5
20FE
  8
0
 10
978.5557130314698
 20
460.7284668637596
 30
0.0
 11
978.5557130314698
 21
443.7284668637595
 31
0.0
  0
LINE
  5
20FF
  8
0
 10
971.0557130314698
 20
461.7284668637596
 30
0.0
 11
977.5557130314698
 21
461.7284668637596
 31
0.0
  0
LINE
  5
2100
  8
0
 10
971.0557130314698
 20
442.7284668637595
 30
0.0
 11
977.5557130314698
 21
442.7284668637595
 31
0.0
  0
ARC
  5
2101
  8
0
 10
977.5557130314698
 20
460.7284668637596
 30
0.0
 40
1.0
 50
0.0
 51
90.0
  0
ARC
  5
2102
  8
0
 10
977.5557130314698
 20
443.7284668637595
 30
0.0
 40
1.0
 50
270.0
 51
0.0
  0
LINE
  5
2103
  8
0
 39
36.0
 10
955.0557130314698
 20
452.2284668637594
 30
0.0
 11
995.4557130314698
 21
452.2284668637595
 31
0.0
  0
LINE
  5
2104
  8
0
 10
977.5557130314698
 20
461.7284668637596
 30
0.0
 11
977.5557130314698
 21
442.7284668637595
 31
0.0
  0
LINE
  5
2105
  8
0
 10
977.5557130314698
 20
452.2284668637594
 30
0.0
 11
971.0557130314698
 21
452.2284668637594
 31
0.0
  0
LINE
  5
2106
  8
0
 10
994.5557130314696
 20
442.9860429392687
 30
0.0
 11
994.5557130314701
 21
461.4708907882502
 31
0.0
  0
LINE
  5
2107
  8
0
 10
982.0557130314696
 20
444.0784729987314
 30
0.0
 11
982.0557130314698
 21
460.3784607287879
 31
0.0
  0
ARC
  5
2108
  8
0
 10
989.0657130314698
 20
452.2284668637596
 30
0.0
 40
10.75
 50
229.3004066340998
 51
300.7103126651754
  0
LINE
  5
2109
  8
0
 10
982.0557130314696
 20
444.0784729987314
 30
0.0
 11
978.5557130314698
 21
444.0784729987314
 31
0.0
  0
ARC
  5
210A
  8
0
 10
989.0657130314698
 20
452.2284668637595
 30
0.0
 40
10.75
 50
59.28968733481734
 51
130.6995933659001
  0
LINE
  5
210B
  8
0
 10
982.0557130314698
 20
460.3784607287879
 30
0.0
 11
978.5557130314698
 21
460.3784607287879
 31
0.0
  0
LINE
  5
210C
  8
0
 39
44.99954549554504
 10
974.0557130314698
 20
461.1501427334071
 30
0.0
 11
974.0557130314698
 21
453.150142734287
 31
0.0
  0
LINE
  5
210D
  8
0
 39
44.99954549554504
 10
974.0557130314698
 20
443.3081474669045
 30
0.0
 11
974.0557130314698
 21
451.3081474660245
 31
0.0
  0
ENDBLK
  8
0
  0
BLOCK
  8
0
  2
GENAXEH
 70
     0
 10
0.0
 20
0.0
 30
0.0
  0
LINE
  5
523B
  8
0
 10
-1.0
 20
0.0
 30
0.0
 11
1.0
 21
0.0
 31
0.0
  0
ENDBLK
  8
0
  0
BLOCK
  8
0
  2
XXX
 70
     0
 10
0.0
 20
0.0
 30
0.0
  0
LINE
  5
531B
  8
CONTOUR
 62
     5
 10
226.5884055835349
 20
57.70000000000011
 30
0.0
 11
234.9884055835347
 21
57.70000000000012
 31
0.0
  0
LINE
  5
531C
  8
CONTOUR
 62
     5
 10
235.2884055835347
 20
57.40000000000013
 30
0.0
 11
234.9884055835347
 21
57.70000000000012
 31
0.0
  0
LINE
  5
531D
  8
CONTOUR
 62
     5
 10
226.2884055835349
 20
57.40000000000011
 30
0.0
 11
226.5884055835349
 21
57.70000000000011
 31
0.0
  0
LINE
  5
531E
  8
CONTOUR
 62
     5
 10
226.2884055835349
 20
57.40000000000011
 30
0.0
 11
226.2884055835349
 21
56.29999999999997
 31
0.0
  0
LINE
  5
531F
  8
CONTOUR
 62
     5
 10
235.2884055835347
 20
57.40000000000013
 30
0.0
 11
235.2884055835347
 21
56.29999999999997
 31
0.0
  0
LINE
  5
5320
  8
CONTOUR
 62
     5
 10
234.9884055835347
 20
55.99999999999997
 30
0.0
 11
235.2884055835347
 21
56.29999999999997
 31
0.0
  0
LINE
  5
5321
  8
CONTOUR
 62
     5
 10
226.5884055835349
 20
55.99999999999997
 30
0.0
 11
234.9884055835347
 21
55.99999999999997
 31
0.0
  0
LINE
  5
5322
  8
CONTOUR
 62
     5
 10
226.2884055835349
 20
56.29999999999997
 30
0.0
 11
226.5884055835349
 21
55.99999999999997
 31
0.0
  0
ARC
  5
5323
  8
CONTOUR
 62
     5
 10
230.7884055835349
 20
55.60000000000274
 30
0.0
 40
3.85
 50
152.1257574874966
 51
174.0364298817204
  0
ARC
  5
5324
  8
CONTOUR
 62
     5
 10
230.7884055835347
 20
55.60000000000274
 30
0.0
 40
3.85
 50
5.963570118279727
 51
27.87424251250398
  0
LINE
  5
5325
  8
CONTOUR
 62
     5
 10
227.3850983684852
 20
57.40000000000012
 30
0.0
 11
234.1917127985844
 21
57.40000000000013
 31
0.0
  0
LINE
  5
5326
  8
CONTOUR
 62
     5
 10
234.1917127985844
 20
57.40000000000013
 30
0.0
 11
234.4917127985844
 21
57.70000000000013
 31
0.0
  0
LINE
  5
5327
  8
CONTOUR
 62
     5
 10
227.3850983684852
 20
57.40000000000013
 30
0.0
 11
227.0850983684852
 21
57.70000000000012
 31
0.0
  0
ENDBLK
  8
0
  0
BLOCK
  8
0
  2
OOO
 70
     0
 10
0.0
 20
0.0
 30
0.0
  0
ARC
  5
532B
  8
0
 10
238.7499107172525
 20
55.60000000000288
 30
0.0
 40
3.85
 50
110.7613618052299
 51
249.2386381947701
  0
ARC
  5
532C
  8
0
 10
238.7499107172525
 20
55.60000000000288
 30
0.0
 40
3.85
 50
290.7613618052299
 51
69.23863819477006
  0
LINE
  5
532D
  8
0
 10
237.7499107172525
 20
59.20000000000288
 30
0.0
 11
237.7499107172525
 21
52.00000000000287
 31
0.0
  0
LINE
  5
532E
  8
0
 10
239.7499107172526
 20
59.20000000000288
 30
0.0
 11
239.7499107172525
 21
52.00000000000288
 31
0.0
  0
LINE
  5
532F
  8
0
 10
237.3851763108563
 20
59.20000000000263
 30
0.0
 11
240.1146451236486
 21
59.2000000000027
 31
0.0
  0
LINE
  5
5330
  8
0
 10
237.3851763108563
 20
52.00000000000313
 30
0.0
 11
240.1146451236486
 21
52.00000000000306
 31
0.0
  0
ENDBLK
  8
0
  0
BLOCK
  8
0
  2
_NONE
 70
     0
 10
0.0
 20
0.0
 30
0.0
  0
ENDBLK
  8
0
  0
BLOCK
  8
0
  2
*D14
 70
     1
 10
0.0
 20
0.0
 30
0.0
  0
LINE
  5
6F3D
  8
\M+19557\M+19290\M+190FC
  6
BYBLOCK
 10
51.19995667620159
 20
63.42496286531575
 30
0.0
 11
51.19995667620159
 21
66.898350910877
 31
0.0
  0
LINE
  5
6F3E
  8
\M+19557\M+19290\M+190FC
  6
BYBLOCK
 10
43.19995667620159
 20
62.62496286531575
 30
0.0
 11
43.19995667620159
 21
66.898350910877
 31
0.0
  0
LINE
  5
6F3F
  8
\M+19557\M+19290\M+190FC
  6
BYBLOCK
 10
49.94995667620159
 20
66.473350910877
 30
0.0
 11
44.44995667620159
 21
66.473350910877
 31
0.0
  0
INSERT
  5
6F40
  8
\M+19557\M+19290\M+190FC
  2
_OPEN30
 10
51.19995667620159
 20
66.473350910877
 30
0.0
 41
1.25
 42
1.25
 43
1.25
  0
INSERT
  5
6F41
  8
\M+19557\M+19290\M+190FC
  2
_OPEN30
 10
43.19995667620159
 20
66.473350910877
 30
0.0
 41
1.25
 42
1.25
 43
1.25
 50
180.0
  0
TEXT
  5
6F42
  8
\M+19557\M+19290\M+190FC
  6
CONTINUOUS
 62
     3
 10
46.78329000953492
 20
66.898350910877
 30
0.0
 40
1.25
  1
8
  0
POINT
  5
6F43
  8
DEFPOINTS
 62
     0
 10
51.19995667620159
 20
62.99996286531575
 30
0.0
  0
POINT
  5
6F44
  8
DEFPOINTS
 62
     0
 10
43.19995667620159
 20
62.19996286531575
 30
0.0
  0
POINT
  5
6F45
  8
DEFPOINTS
 62
     0
 10
43.19995667620159
 20
66.473350910877
 30
0.0
  0
ENDBLK
  8
0
  0
BLOCK
  8
0
  2
*D15
 70
     1
 10
0.0
 20
0.0
 30
0.0
  0
LINE
  5
6F49
  8
\M+19557\M+19290\M+190FC
  6
BYBLOCK
 10
43.19995667620159
 20
62.62496286531575
 30
0.0
 11
43.19995667620159
 21
72.40078305711772
 31
0.0
  0
LINE
  5
6F4A
  8
\M+19557\M+19290\M+190FC
  6
BYBLOCK
 10
96.79995667620157
 20
63.22496286531574
 30
0.0
 11
96.79995667620157
 21
72.40078305711772
 31
0.0
  0
LINE
  5
6F4B
  8
\M+19557\M+19290\M+190FC
  6
BYBLOCK
 10
44.44995667620159
 20
71.97578305711772
 30
0.0
 11
95.54995667620157
 21
71.97578305711772
 31
0.0
  0
INSERT
  5
6F4C
  8
\M+19557\M+19290\M+190FC
  2
_OPEN30
 10
43.19995667620159
 20
71.97578305711772
 30
0.0
 41
1.25
 42
1.25
 43
1.25
 50
180.0
  0
INSERT
  5
6F4D
  8
\M+19557\M+19290\M+190FC
  2
_OPEN30
 10
96.79995667620157
 20
71.97578305711772
 30
0.0
 41
1.25
 42
1.25
 43
1.25
  0
TEXT
  5
6F4E
  8
\M+19557\M+19290\M+190FC
  6
CONTINUOUS
 62
     3
 10
68.12495667620158
 20
72.40078305711772
 30
0.0
 40
1.25
  1
53.6
  0
POINT
  5
6F4F
  8
DEFPOINTS
 62
     0
 10
43.19995667620159
 20
62.19996286531575
 30
0.0
  0
POINT
  5
6F50
  8
DEFPOINTS
 62
     0
 10
96.79995667620157
 20
62.79996286531574
 30
0.0
  0
POINT
  5
6F51
  8
DEFPOINTS
 62
     0
 10
96.79995667620157
 20
71.97578305711772
 30
0.0
  0
ENDBLK
  8
0
  0
BLOCK
  8
0
  2
*D16
 70
     1
 10
0.0
 20
0.0
 30
0.0
  0
LINE
  5
6F55
  8
\M+19557\M+19290\M+190FC
  6
BYBLOCK
 10
42.77495667620159
 20
61.99996286531576
 30
0.0
 11
38.77132109528243
 21
61.99996286531576
 31
0.0
  0
LINE
  5
6F56
  8
\M+19557\M+19290\M+190FC
  6
BYBLOCK
 10
42.77495667620159
 20
57.99996286531574
 30
0.0
 11
38.77132109528243
 21
57.99996286531574
 31
0.0
  0
LINE
  5
6F57
  8
\M+19557\M+19290\M+190FC
  6
BYBLOCK
 10
39.19632109528243
 20
60.74996286531576
 30
0.0
 11
39.19632109528243
 21
59.24996286531574
 31
0.0
  0
INSERT
  5
6F58
  8
\M+19557\M+19290\M+190FC
  2
_OPEN30
 10
39.19632109528243
 20
61.99996286531576
 30
0.0
 41
1.25
 42
1.25
 43
1.25
 50
90.0
  0
INSERT
  5
6F59
  8
\M+19557\M+19290\M+190FC
  2
_OPEN30
 10
39.19632109528243
 20
57.99996286531574
 30
0.0
 41
1.25
 42
1.25
 43
1.25
 50
270.0
  0
TEXT
  5
6F5A
  8
\M+19557\M+19290\M+190FC
  6
CONTINUOUS
 62
     3
 10
38.77132109528242
 20
58.95829619864909
 30
0.0
 40
1.25
  1
\U+22054
 50
90.0
  0
POINT
  5
6F5B
  8
DEFPOINTS
 62
     0
 10
43.19995667620159
 20
61.99996286531576
 30
0.0
  0
POINT
  5
6F5C
  8
DEFPOINTS
 62
     0
 10
43.19995667620159
 20
57.99996286531574
 30
0.0
  0
POINT
  5
6F5D
  8
DEFPOINTS
 62
     0
 10
39.19632109528243
 20
57.99996286531574
 30
0.0
  0
ENDBLK
  8
0
  0
BLOCK
  8
0
  2
*D17
 70
     1
 10
0.0
 20
0.0
 30
0.0
  0
LINE
  5
6F61
  8
\M+19557\M+19290\M+190FC
  6
BYBLOCK
 10
96.79995667620157
 20
63.22496286531574
 30
0.0
 11
96.79995667620157
 21
66.898350910877
 31
0.0
  0
LINE
  5
6F62
  8
\M+19557\M+19290\M+190FC
  6
BYBLOCK
 10
89.79995667620156
 20
62.92496286531573
 30
0.0
 11
89.79995667620156
 21
66.898350910877
 31
0.0
  0
LINE
  5
6F63
  8
\M+19557\M+19290\M+190FC
  6
BYBLOCK
 10
95.54995667620157
 20
66.473350910877
 30
0.0
 11
91.04995667620156
 21
66.473350910877
 31
0.0
  0
INSERT
  5
6F64
  8
\M+19557\M+19290\M+190FC
  2
_OPEN30
 10
96.79995667620157
 20
66.473350910877
 30
0.0
 41
1.25
 42
1.25
 43
1.25
  0
INSERT
  5
6F65
  8
\M+19557\M+19290\M+190FC
  2
_OPEN30
 10
89.79995667620156
 20
66.473350910877
 30
0.0
 41
1.25
 42
1.25
 43
1.25
 50
180.0
  0
TEXT
  5
6F66
  8
\M+19557\M+19290\M+190FC
  6
CONTINUOUS
 62
     3
 10
92.88329000953489
 20
66.898350910877
 30
0.0
 40
1.25
  1
7
  0
POINT
  5
6F67
  8
DEFPOINTS
 62
     0
 10
96.79995667620157
 20
62.79996286531574
 30
0.0
  0
POINT
  5
6F68
  8
DEFPOINTS
 62
     0
 10
89.79995667620156
 20
62.49996286531574
 30
0.0
  0
POINT
  5
6F69
  8
DEFPOINTS
 62
     0
 10
89.79995667620156
 20
66.473350910877
 30
0.0
  0
ENDBLK
  8
0
  0
BLOCK
  8
0
  2
*D18
 70
     1
 10
0.0
 20
0.0
 30
0.0
  0
LINE
  5
6F6D
  8
\M+19557\M+19290\M+190FC
  6
BYBLOCK
 10
43.57495667620159
 20
62.99996286531575
 30
0.0
 11
33.72234223462443
 21
62.99996286531575
 31
0.0
  0
LINE
  5
6F6E
  8
\M+19557\M+19290\M+190FC
  6
BYBLOCK
 10
43.57495667620159
 20
56.99996286531575
 30
0.0
 11
33.72234223462443
 21
56.99996286531575
 31
0.0
  0
LINE
  5
6F6F
  8
\M+19557\M+19290\M+190FC
  6
BYBLOCK
 10
34.14734223462444
 20
61.74996286531575
 30
0.0
 11
34.14734223462444
 21
58.24996286531575
 31
0.0
  0
LINE
  5
6F70
  8
\M+19557\M+19290\M+190FC
  6
BYBLOCK
 10
34.14734223462444
 20
56.99996286531575
 30
0.0
 11
34.14734223462443
 21
46.35829619864909
 31
0.0
  0
INSERT
  5
6F71
  8
\M+19557\M+19290\M+190FC
  2
_OPEN30
 10
34.14734223462444
 20
62.99996286531575
 30
0.0
 41
1.25
 42
1.25
 43
1.25
 50
90.0
  0
INSERT
  5
6F72
  8
\M+19557\M+19290\M+190FC
  2
_OPEN30
 10
34.14734223462444
 20
56.99996286531575
 30
0.0
 41
1.25
 42
1.25
 43
1.25
 50
270.0
  0
TEXT
  5
6F73
  8
\M+19557\M+19290\M+190FC
  6
CONTINUOUS
 62
     3
 10
33.72234223462442
 20
46.7832961986491
 30
0.0
 40
1.25
  1
M6x0.75P
 50
90.0
  0
POINT
  5
6F74
  8
DEFPOINTS
 62
     0
 10
43.99995667620158
 20
62.99996286531575
 30
0.0
  0
POINT
  5
6F75
  8
DEFPOINTS
 62
     0
 10
43.99995667620158
 20
56.99996286531575
 30
0.0
  0
POINT
  5
6F76
  8
DEFPOINTS
 62
     0
 10
34.14734223462444
 20
56.99996286531575
 30
0.0
  0
ENDBLK
  8
0
  0
BLOCK
  8
0
  2
*D19
 70
     1
 10
0.0
 20
0.0
 30
0.0
  0
LINE
  5
6F7A
  8
\M+19557\M+19290\M+190FC
  6
BYBLOCK
 10
97.12495667620155
 20
62.49996286531574
 30
0.0
 11
102.8994903346062
 21
62.49996286531574
 31
0.0
  0
LINE
  5
6F7B
  8
\M+19557\M+19290\M+190FC
  6
BYBLOCK
 10
97.12495667620159
 20
57.49996286531574
 30
0.0
 11
102.8994903346062
 21
57.49996286531574
 31
0.0
  0
LINE
  5
6F7C
  8
\M+19557\M+19290\M+190FC
  6
BYBLOCK
 10
102.4744903346062
 20
61.24996286531574
 30
0.0
 11
102.4744903346062
 21
58.74996286531574
 31
0.0
  0
LINE
  5
6F7D
  8
\M+19557\M+19290\M+190FC
  6
BYBLOCK
 10
102.4744903346062
 20
57.49996286531574
 30
0.0
 11
102.4744903346062
 21
48.10829619864907
 31
0.0
  0
INSERT
  5
6F7E
  8
\M+19557\M+19290\M+190FC
  2
_OPEN30
 10
102.4744903346062
 20
62.49996286531574
 30
0.0
 41
1.25
 42
1.25
 43
1.25
 50
90.0
  0
INSERT
  5
6F7F
  8
\M+19557\M+19290\M+190FC
  2
_OPEN30
 10
102.4744903346062
 20
57.49996286531574
 30
0.0
 41
1.25
 42
1.25
 43
1.25
 50
270.0
  0
TEXT
  5
6F80
  8
\M+19557\M+19290\M+190FC
  6
CONTINUOUS
 62
     3
 10
102.0494903346062
 20
48.53329619864909
 30
0.0
 40
1.25
  1
M5x0.8P
 50
90.0
  0
POINT
  5
6F81
  8
DEFPOINTS
 62
     0
 10
96.69995667620155
 20
62.49996286531574
 30
0.0
  0
POINT
  5
6F82
  8
DEFPOINTS
 62
     0
 10
96.6999566762016
 20
57.49996286531574
 30
0.0
  0
POINT
  5
6F83
  8
DEFPOINTS
 62
     0
 10
102.4744903346062
 20
57.49996286531574
 30
0.0
  0
ENDBLK
  8
0
  0
BLOCK
  8
0
  2
*D20
 70
     1
 10
0.0
 20
0.0
 30
0.0
  0
LINE
  5
6F87
  8
\M+19557\M+19290\M+190FC
  6
BYBLOCK
 10
70.29995667620157
 20
61.74996286531575
 30
0.0
 11
70.29995667620157
 21
58.24996286531574
 31
0.0
  0
LINE
  5
6F88
  8
\M+19557\M+19290\M+190FC
  6
BYBLOCK
 10
70.29995667620157
 20
56.99996286531574
 30
0.0
 11
70.29995667620157
 21
52.8166295319824
 31
0.0
  0
INSERT
  5
6F89
  8
\M+19557\M+19290\M+190FC
  2
_OPEN30
 10
70.29995667620157
 20
62.99996286531575
 30
0.0
 41
1.25
 42
1.25
 43
1.25
 50
90.0
  0
INSERT
  5
6F8A
  8
\M+19557\M+19290\M+190FC
  2
_OPEN30
 10
70.29995667620157
 20
56.99996286531574
 30
0.0
 41
1.25
 42
1.25
 43
1.25
 50
270.0
  0
TEXT
  5
6F8B
  8
\M+19557\M+19290\M+190FC
  6
CONTINUOUS
 62
     3
 10
69.87495667620156
 20
53.2416295319824
 30
0.0
 40
1.25
  1
\U+22056
 50
90.0
  0
POINT
  5
6F8C
  8
DEFPOINTS
 62
     0
 10
70.29995667620157
 20
62.99996286531575
 30
0.0
  0
POINT
  5
6F8D
  8
DEFPOINTS
 62
     0
 10
70.29995667620157
 20
56.99996286531574
 30
0.0
  0
POINT
  5
6F8E
  8
DEFPOINTS
 62
     0
 10
70.29995667620157
 20
56.99996286531574
 30
0.0
  0
ENDBLK
  8
0
  0
BLOCK
  8
0
  2
A$C51E94851
 70
     0
 10
0.0
 20
0.0
 30
0.0
  0
LINE
  5
6F91
  8
本體外線
 10
11.52761458366581
 20
10.64166677803075
 30
0.0
 11
64.1276145836658
 21
10.64166677803074
 31
0.0
  0
LINE
  5
6F92
  8
本體外線
 10
64.3276145836658
 20
10.84166677803074
 30
0.0
 11
64.1276145836658
 21
10.64166677803074
 31
0.0
  0
LINE
  5
6F93
  8
CONTOUR
 10
10.72761458366581
 20
11.44166677803075
 30
0.0
 11
11.52761458366581
 21
10.64166677803075
 31
0.0
  0
LINE
  5
6F94
  8
本體外線
 10
64.3276145836658
 20
10.84166677803074
 30
0.0
 11
64.3276145836658
 21
16.44166677803074
 31
0.0
  0
LINE
  5
6F95
  8
本體內線
 10
63.82761458366581
 20
15.74166677803075
 30
0.0
 11
64.3276145836658
 21
16.24166677803075
 31
0.0
  0
LINE
  5
6F96
  8
本體外線
 10
64.1276145836658
 20
16.64166677803075
 30
0.0
 11
64.3276145836658
 21
16.44166677803074
 31
0.0
  0
LINE
  5
6F97
  8
本體外線
 10
64.1276145836658
 20
16.64166677803075
 30
0.0
 11
11.52761458366582
 21
16.64166677803075
 31
0.0
  0
LINE
  5
6F98
  8
CONTOUR
 10
10.72761458366582
 20
15.84166677803076
 30
0.0
 11
10.72761458366581
 21
11.44166677803075
 31
0.0
  0
LINE
  5
6F99
  8
CONTOUR
 10
11.52761458366582
 20
16.64166677803075
 30
0.0
 11
10.72761458366582
 21
15.84166677803076
 31
0.0
  0
LINE
  5
6F9A
  8
中心線
 10
65.3276145836658
 20
13.64166677803075
 30
0.0
 11
9.727614583665812
 21
13.64166677803075
 31
0.0
  0
LINE
  5
6F9B
  8
CONTOUR
 62
     4
 10
11.15261458366582
 20
16.26666677803075
 30
0.0
 11
18.72761458366582
 21
16.26666677803075
 31
0.0
  0
LINE
  5
6F9C
  8
CONTOUR
 62
     4
 10
11.15261458366581
 20
11.01666677803075
 30
0.0
 11
18.72761458366582
 21
11.01666677803075
 31
0.0
  0
LINE
  5
6F9D
  8
CONTOUR
 62
     4
 10
18.72761458366581
 20
16.26666677803075
 30
0.0
 11
19.37713363650414
 21
16.64166677803075
 31
0.0
  0
LINE
  5
6F9E
  8
CONTOUR
 62
     4
 10
18.72761458366581
 20
11.01666677803075
 30
0.0
 11
19.37713363650415
 21
10.64166677803075
 31
0.0
  0
LINE
  5
6F9F
  8
CONTOUR
 10
18.72761458366582
 20
10.64166677803075
 30
0.0
 11
18.72761458366582
 21
16.64166677803075
 31
0.0
  0
LINE
  5
6FA0
  8
CONTOUR
 10
11.52761458366582
 20
16.64166677803075
 30
0.0
 11
11.52761458366582
 21
10.64166677803075
 31
0.0
  0
LINE
  5
6FA1
  8
本體內線
 10
10.72761458366582
 20
15.64166677803076
 30
0.0
 11
57.32761458366578
 21
15.64166677803076
 31
0.0
  0
LINE
  5
6FA2
  8
本體內線
 10
10.72761458366582
 20
11.64166677803075
 30
0.0
 11
57.32761458366578
 21
11.64166677803074
 31
0.0
  0
LINE
  5
6FA3
  8
本體外線
 10
64.1276145836658
 20
16.64166677803075
 30
0.0
 11
64.12761458366582
 21
10.64166677803074
 31
0.0
  0
LINE
  5
6FA4
  8
本體內線
 10
64.22761458366578
 20
16.14166677803074
 30
0.0
 11
57.32761458366579
 21
16.14166677803074
 31
0.0
  0
LINE
  5
6FA5
  8
本體內線
 10
64.22761458366581
 20
11.14166677803074
 30
0.0
 11
57.32761458366579
 21
11.14166677803074
 31
0.0
  0
LINE
  5
6FA6
  8
本體內線
 10
57.32761458366579
 20
11.14166677803074
 30
0.0
 11
57.32761458366579
 21
16.14166677803074
 31
0.0
  0
LINE
  5
6FA7
  8
本體內線
 10
57.32761458366579
 20
15.74166677803075
 30
0.0
 11
63.82761458366581
 21
15.74166677803075
 31
0.0
  0
LINE
  5
6FA8
  8
本體內線
 10
57.32761458366579
 20
11.54166677803075
 30
0.0
 11
63.82761458366581
 21
11.54166677803075
 31
0.0
  0
LINE
  5
6FA9
  8
本體內線
 10
63.82761458366581
 20
11.54166677803075
 30
0.0
 11
64.3276145836658
 21
11.04166677803075
 31
0.0
  0
LINE
  5
6FAA
  8
本體內線
 10
63.82761458366581
 20
11.54166677803075
 30
0.0
 11
63.82761458366581
 21
15.74166677803075
 31
0.0
  0
LINE
  5
6FAB
  8
本體內線
 10
57.32761458366579
 20
16.14166677803074
 30
0.0
 11
56.46158917988139
 21
15.64166677803075
 31
0.0
  0
LINE
  5
6FAC
  8
本體內線
 10
57.32761458366579
 20
11.14166677803074
 30
0.0
 11
56.46158917988139
 21
11.64166677803073
 31
0.0
  0
DIMENSION
  5
6FAD
  8
\M+19557\M+19290\M+190FC
  2
*D14
 10
10.72761458366582
 20
20.115054823592
 30
0.0
 11
14.72761458366582
 21
21.165054823592
 31
0.0
 12
-32.47234209253577
 22
-46.358296087285
 32
0.0
 70
     0
 13
18.72761458366582
 23
16.64166677803075
 33
0.0
 14
10.72761458366582
 24
15.84166677803076
 34
0.0
  0
DIMENSION
  5
6FAE
  8
\M+19557\M+19290\M+190FC
  2
*D15
 10
64.3276145836658
 20
25.61748696983273
 30
0.0
 11
37.52761458366581
 21
26.66748696983272
 31
0.0
 12
-32.47234209253577
 22
-46.358296087285
 32
0.0
 70
     0
 13
10.72761458366582
 23
15.84166677803076
 33
0.0
 14
64.3276145836658
 24
16.44166677803074
 34
0.0
  0
DIMENSION
  5
6FAF
  8
\M+19557\M+19290\M+190FC
  2
*D16
 10
6.72397900274666
 20
11.64166677803075
 30
0.0
 11
5.673979002746655
 21
13.64166677803076
 31
0.0
 12
-32.47234209253577
 22
-46.358296087285
 32
0.0
 70
     0
  1
%%c<>
 13
10.72761458366582
 23
15.64166677803076
 33
0.0
 14
10.72761458366582
 24
11.64166677803075
 34
0.0
 50
90.0
  0
DIMENSION
  5
6FB0
  8
\M+19557\M+19290\M+190FC
  2
*D17
 10
57.32761458366579
 20
20.115054823592
 30
0.0
 11
60.82761458366579
 21
21.165054823592
 31
0.0
 12
-32.47234209253577
 22
-46.358296087285
 32
0.0
 70
     0
 13
64.3276145836658
 23
16.44166677803074
 33
0.0
 14
57.32761458366579
 24
16.14166677803074
 34
0.0
  0
DIMENSION
  5
6FB1
  8
\M+19557\M+19290\M+190FC
  2
*D18
 10
1.67500014208867
 20
10.64166677803075
 30
0.0
 11
1.675000142088656
 21
4.695833444697428
 31
0.0
 12
-32.47234209253577
 22
-46.358296087285
 32
0.0
 70
   128
  1
M6x0.75P
 13
11.52761458366582
 23
16.64166677803075
 33
0.0
 14
11.52761458366582
 24
10.64166677803075
 34
0.0
 50
90.0
  0
DIMENSION
  5
6FB2
  8
\M+19557\M+19290\M+190FC
  2
*D19
 10
70.00214824207046
 20
11.14166677803074
 30
0.0
 11
68.95214824207045
 21
5.820833444697421
 31
0.0
 12
-32.47234209253577
 22
-46.358296087285
 32
0.0
 70
     0
  1
M5x0.8P
 13
64.22761458366578
 23
16.14166677803074
 33
0.0
 14
64.22761458366583
 24
11.14166677803074
 34
0.0
 50
90.0
  0
DIMENSION
  5
6FB3
  8
\M+19557\M+19290\M+190FC
  2
*D20
 10
37.82761458366581
 20
10.64166677803074
 30
0.0
 11
37.82761458366579
 21
7.925000111364078
 31
0.0
 12
-32.47234209253577
 22
-46.358296087285
 32
0.0
 70
   128
  1
%%c<>
 13
37.82761458366581
 23
16.64166677803075
 33
0.0
 14
37.82761458366581
 24
10.64166677803074
 34
0.0
 50
90.0
  0
ENDBLK
  8
0
  0
BLOCK
  8
0
  2
*D22
 70
     1
 10
0.0
 20
0.0
 30
0.0
  0
LINE
  5
92DA
  8
\M+19557\M+19290\M+190FC
  6
BYBLOCK
 10
77.59541677103039
 20
119.3499999999999
 30
0.0
 11
77.59541677103039
 21
129.4321551944429
 31
0.0
  0
LINE
  5
92DB
  8
\M+19557\M+19290\M+190FC
  6
BYBLOCK
 10
137.5954167710304
 20
113.6499999999999
 30
0.0
 11
137.5954167710304
 21
129.4321551944429
 31
0.0
  0
LINE
  5
92DC
  8
\M+19557\M+19290\M+190FC
  6
BYBLOCK
 10
80.09541677103039
 20
128.5821551944429
 30
0.0
 11
135.0954167710304
 21
128.5821551944429
 31
0.0
  0
INSERT
  5
92DD
  8
\M+19557\M+19290\M+190FC
  2
_OPEN30
 10
77.59541677103039
 20
128.5821551944429
 30
0.0
 41
2.5
 42
2.5
 43
2.5
 50
180.0
  0
INSERT
  5
92DE
  8
\M+19557\M+19290\M+190FC
  2
_OPEN30
 10
137.5954167710304
 20
128.5821551944429
 30
0.0
 41
2.5
 42
2.5
 43
2.5
  0
TEXT
  5
92DF
  8
\M+19557\M+19290\M+190FC
  6
CONTINUOUS
 62
     3
 10
105.7204167710304
 20
129.4321551944429
 30
0.0
 40
2.5
  1
60
  0
POINT
  5
92E0
  8
DEFPOINTS
 62
     0
 10
77.59541677103039
 20
118.4999999999999
 30
0.0
  0
POINT
  5
92E1
  8
DEFPOINTS
 62
     0
 10
137.5954167710304
 20
112.7999999999999
 30
0.0
  0
POINT
  5
92E2
  8
DEFPOINTS
 62
     0
 10
137.5954167710304
 20
128.5821551944429
 30
0.0
  0
ENDBLK
  8
0
  0
BLOCK
  8
0
  2
*D23
 70
     1
 10
0.0
 20
0.0
 30
0.0
  0
LINE
  5
92E3
  8
\M+19557\M+19290\M+190FC
  6
BYBLOCK
 10
77.59541677103039
 20
119.3499999999999
 30
0.0
 11
77.59541677103039
 21
129.4321551944429
 31
0.0
  0
LINE
  5
92E4
  8
\M+19557\M+19290\M+190FC
  6
BYBLOCK
 10
67.59541677103039
 20
114.868779390244
 30
0.0
 11
67.59541677103039
 21
129.4321551944429
 31
0.0
  0
LINE
  5
92E5
  8
\M+19557\M+19290\M+190FC
  6
BYBLOCK
 10
75.09541677103039
 20
128.5821551944429
 30
0.0
 11
70.09541677103039
 21
128.5821551944429
 31
0.0
  0
INSERT
  5
92E6
  8
\M+19557\M+19290\M+190FC
  2
_OPEN30
 10
77.59541677103039
 20
128.5821551944429
 30
0.0
 41
2.5
 42
2.5
 43
2.5
  0
INSERT
  5
92E7
  8
\M+19557\M+19290\M+190FC
  2
_OPEN30
 10
67.59541677103039
 20
128.5821551944429
 30
0.0
 41
2.5
 42
2.5
 43
2.5
 50
180.0
  0
TEXT
  5
92E8
  8
\M+19557\M+19290\M+190FC
  6
CONTINUOUS
 62
     3
 10
71.13708343769706
 20
129.4321551944429
 30
0.0
 40
2.5
  1
10
  0
POINT
  5
92E9
  8
DEFPOINTS
 62
     0
 10
77.59541677103039
 20
118.4999999999999
 30
0.0
  0
POINT
  5
92EA
  8
DEFPOINTS
 62
     0
 10
67.59541677103039
 20
114.018779390244
 30
0.0
  0
POINT
  5
92EB
  8
DEFPOINTS
 62
     0
 10
67.59541677103039
 20
128.5821551944429
 30
0.0
  0
ENDBLK
  8
0
  0
BLOCK
  8
0
  2
*D24
 70
     1
 10
0.0
 20
0.0
 30
0.0
  0
LINE
  5
92EC
  8
\M+19557\M+19290\M+190FC
  6
BYBLOCK
 10
137.9454167710304
 20
111.9999999999999
 30
0.0
 11
145.5932733039234
 21
111.9999999999999
 31
0.0
  0
LINE
  5
92ED
  8
\M+19557\M+19290\M+190FC
  6
BYBLOCK
 10
137.9454167710304
 20
107.9999999999999
 30
0.0
 11
145.5932733039234
 21
107.9999999999999
 31
0.0
  0
LINE
  5
92EE
  8
\M+19557\M+19290\M+190FC
  6
BYBLOCK
 10
144.7432733039234
 20
114.4999999999999
 30
0.0
 11
144.7432733039234
 21
116.9999999999999
 31
0.0
  0
LINE
  5
92EF
  8
\M+19557\M+19290\M+190FC
  6
BYBLOCK
 10
144.7432733039234
 20
105.4999999999999
 30
0.0
 11
144.7432733039234
 21
97.13333333333325
 31
0.0
  0
LINE
  5
92F0
  8
\M+19557\M+19290\M+190FC
  6
BYBLOCK
 10
144.7432733039234
 20
111.9999999999999
 30
0.0
 11
144.7432733039234
 21
107.9999999999999
 31
0.0
  0
INSERT
  5
92F1
  8
\M+19557\M+19290\M+190FC
  2
_OPEN30
 10
144.7432733039234
 20
111.9999999999999
 30
0.0
 41
2.5
 42
2.5
 43
2.5
 50
270.0
  0
INSERT
  5
92F2
  8
\M+19557\M+19290\M+190FC
  2
_OPEN30
 10
144.7432733039234
 20
107.9999999999999
 30
0.0
 41
2.5
 42
2.5
 43
2.5
 50
90.0
  0
TEXT
  5
92F3
  8
\M+19557\M+19290\M+190FC
  6
CONTINUOUS
 62
     3
 10
143.8932733039233
 20
97.98333333333325
 30
0.0
 40
2.5
  1
\U+22054
 50
90.0
  0
POINT
  5
92F4
  8
DEFPOINTS
 62
     0
 10
137.0954167710304
 20
111.9999999999999
 30
0.0
  0
POINT
  5
92F5
  8
DEFPOINTS
 62
     0
 10
137.0954167710304
 20
107.9999999999999
 30
0.0
  0
POINT
  5
92F6
  8
DEFPOINTS
 62
     0
 10
144.7432733039234
 20
107.9999999999999
 30
0.0
  0
ENDBLK
  8
0
  0
BLOCK
  8
0
  2
*D25
 70
     1
 10
0.0
 20
0.0
 30
0.0
  0
LINE
  5
9694
  8
\M+19557\M+19290\M+190FC
  6
BYBLOCK
 10
96.01246353420046
 20
105.2966732219227
 30
0.0
 11
111.7223935195615
 21
94.2964618214263
 31
0.0
  0
ARC
  5
9695
  8
\M+19557\M+19290\M+190FC
  6
BYBLOCK
 10
89.29541677103262
 20
109.9999999999999
 30
0.0
 40
26.52828331734792
 50
330.4014993975514
 51
353.3717227506291
  0
ARC
  5
9696
  8
\M+19557\M+19290\M+190FC
  6
BYBLOCK
 10
89.29541677103262
 20
109.9999999999999
 30
0.0
 40
26.52828331734792
 50
353.6416977186079
 51
354.5985006024491
  0
INSERT
  5
9697
  8
\M+19557\M+19290\M+190FC
  2
_OPEN30
 10
111.0261142819158
 20
94.78400179232469
 30
0.0
 41
2.5
 42
2.5
 43
2.5
 50
237.7007496987758
  0
INSERT
  5
9698
  8
\M+19557\M+19290\M+190FC
  2
_OPEN30
 10
115.8237000883805
 20
110.0
 30
0.0
 41
2.5
 42
2.5
 43
2.5
 50
87.2992503012246
  0
TEXT
  5
9699
  8
\M+19557\M+19290\M+190FC
  6
CONTINUOUS
 62
     3
 10
112.9081722550153
 20
99.4967168454773
 30
0.0
 40
2.5
  1
35°
 50
72.50000000000009
  0
POINT
  5
969A
  8
DEFPOINTS
 62
     0
 10
113.6541138009048
 20
99.4926837502444
 30
0.0
  0
POINT
  5
969B
  8
DEFPOINTS
 62
     0
 10
138.5954167710304
 20
110.0
 30
0.0
  0
POINT
  5
969C
  8
DEFPOINTS
 62
     0
 10
89.29541677103072
 20
110.0000000000013
 30
0.0
  0
POINT
  5
969D
  8
DEFPOINTS
 62
     0
 10
95.31618429655484
 20
105.7842131928211
 30
0.0
  0
POINT
  5
969E
  8
DEFPOINTS
 62
     0
 10
66.59541677103061
 20
109.9999999999999
 30
0.0
  0
ENDBLK
  8
0
  0
BLOCK
  8
0
  2
*D26
 70
     1
 10
0.0
 20
0.0
 30
0.0
  0
LINE
  5
9338
  8
\M+19557\M+19290\M+190FC
  6
BYBLOCK
 10
185.9745223282153
 20
115.7574772881119
 30
0.0
 11
185.9745223282153
 21
129.4321551944429
 31
0.0
  0
LINE
  5
9339
  8
\M+19557\M+19290\M+190FC
  6
BYBLOCK
 10
202.9745223282156
 20
115.7574772881119
 30
0.0
 11
202.9745223282156
 21
129.4321551944429
 31
0.0
  0
LINE
  5
933A
  8
\M+19557\M+19290\M+190FC
  6
BYBLOCK
 10
188.4745223282153
 20
128.5821551944429
 30
0.0
 11
200.4745223282156
 21
128.5821551944429
 31
0.0
  0
INSERT
  5
933B
  8
\M+19557\M+19290\M+190FC
  2
_OPEN30
 10
185.9745223282153
 20
128.5821551944429
 30
0.0
 41
2.5
 42
2.5
 43
2.5
 50
180.0
  0
INSERT
  5
933C
  8
\M+19557\M+19290\M+190FC
  2
_OPEN30
 10
202.9745223282156
 20
128.5821551944429
 30
0.0
 41
2.5
 42
2.5
 43
2.5
  0
TEXT
  5
933D
  8
\M+19557\M+19290\M+190FC
  6
CONTINUOUS
 62
     3
 10
192.8078556615488
 20
129.4321551944429
 30
0.0
 40
2.5
  1
17
  0
POINT
  5
933E
  8
DEFPOINTS
 62
     0
 10
185.9745223282153
 20
114.9074772881119
 30
0.0
  0
POINT
  5
933F
  8
DEFPOINTS
 62
     0
 10
202.9745223282156
 20
114.9074772881119
 30
0.0
  0
POINT
  5
9340
  8
DEFPOINTS
 62
     0
 10
202.9745223282156
 20
128.5821551944429
 30
0.0
  0
ENDBLK
  8
0
  0
BLOCK
  8
0
  2
*D27
 70
     1
 10
0.0
 20
0.0
 30
0.0
  0
LINE
  5
9302
  8
\M+19557\M+19290\M+190FC
  6
BYBLOCK
 10
67.24541677103039
 20
113.0000000000002
 30
0.0
 11
59.55835087417653
 21
113.0000000000002
 31
0.0
  0
LINE
  5
9303
  8
\M+19557\M+19290\M+190FC
  6
BYBLOCK
 10
67.2454167710305
 20
106.9999999999996
 30
0.0
 11
59.55835087417652
 21
106.9999999999996
 31
0.0
  0
LINE
  5
9304
  8
\M+19557\M+19290\M+190FC
  6
BYBLOCK
 10
60.40835087417653
 20
115.5000000000002
 30
0.0
 11
60.40835087417653
 21
118.0000000000002
 31
0.0
  0
LINE
  5
9305
  8
\M+19557\M+19290\M+190FC
  6
BYBLOCK
 10
60.40835087417652
 20
104.4999999999996
 30
0.0
 11
60.40835087417652
 21
101.9999999999996
 31
0.0
  0
LINE
  5
9306
  8
\M+19557\M+19290\M+190FC
  6
BYBLOCK
 10
60.40835087417653
 20
113.0000000000002
 30
0.0
 11
60.40835087417652
 21
106.9999999999996
 31
0.0
  0
INSERT
  5
9307
  8
\M+19557\M+19290\M+190FC
  2
_OPEN30
 10
60.40835087417653
 20
113.0000000000002
 30
0.0
 41
2.5
 42
2.5
 43
2.5
 50
270.0
  0
INSERT
  5
9308
  8
\M+19557\M+19290\M+190FC
  2
_OPEN30
 10
60.40835087417652
 20
106.9999999999996
 30
0.0
 41
2.5
 42
2.5
 43
2.5
 50
90.0
  0
TEXT
  5
9309
  8
\M+19557\M+19290\M+190FC
  6
CONTINUOUS
 62
     3
 10
59.55835087417651
 20
107.9166666666665
 30
0.0
 40
2.5
  1
\U+22056
 50
90.0
  0
POINT
  5
930A
  8
DEFPOINTS
 62
     0
 10
68.09541677103039
 20
113.0000000000002
 30
0.0
  0
POINT
  5
930B
  8
DEFPOINTS
 62
     0
 10
68.0954167710305
 20
106.9999999999996
 30
0.0
  0
POINT
  5
930C
  8
DEFPOINTS
 62
     0
 10
60.40835087417652
 20
106.9999999999996
 30
0.0
  0
ENDBLK
  8
0
  0
BLOCK
  8
0
  2
*D33
 70
     1
 10
0.0
 20
0.0
 30
0.0
  0
LINE
  5
930D
  8
\M+19557\M+19290\M+190FC
  6
BYBLOCK
 10
96.01246353420049
 20
114.7033267780799
 30
0.0
 11
111.7194584249944
 21
125.7014830032352
 31
0.0
  0
ARC
  5
930E
  8
\M+19557\M+19290\M+190FC
  6
BYBLOCK
 10
89.29541677102885
 20
110.0
 30
0.0
 40
26.52470022848956
 50
5.402229600042662
 51
29.59777039995753
  0
INSERT
  5
930F
  8
\M+19557\M+19290\M+190FC
  2
_OPEN30
 10
115.8201169995184
 20
110.0
 30
0.0
 41
2.5
 42
2.5
 43
2.5
 50
272.7011148000213
  0
INSERT
  5
9310
  8
\M+19557\M+19290\M+190FC
  2
_OPEN30
 10
111.0231791873487
 20
125.2139430323368
 30
0.0
 41
2.5
 42
2.5
 43
2.5
 50
122.2988851999788
  0
TEXT
  5
9311
  8
\M+19557\M+19290\M+190FC
  6
CONTINUOUS
 62
     3
 10
114.6588721662062
 20
114.9388568195582
 30
0.0
 40
2.5
  1
35°
 50
107.5000000000001
  0
POINT
  5
9312
  8
DEFPOINTS
 62
     0
 10
115.2721331849427
 20
115.3637604870402
 30
0.0
  0
POINT
  5
9313
  8
DEFPOINTS
 62
     0
 10
89.29541677103076
 20
110.0000000000013
 30
0.0
  0
POINT
  5
9314
  8
DEFPOINTS
 62
     0
 10
138.5954167710304
 20
110.0000000000001
 30
0.0
  0
POINT
  5
9315
  8
DEFPOINTS
 62
     0
 10
66.59541677103063
 20
109.9999999999999
 30
0.0
  0
POINT
  5
9316
  8
DEFPOINTS
 62
     0
 10
95.31618429655484
 20
114.2157868071815
 30
0.0
  0
ENDBLK
  8
0
  0
BLOCK
  8
0
  2
*D34
 70
     1
 10
0.0
 20
0.0
 30
0.0
  0
LINE
  5
9317
  8
\M+19557\M+19290\M+190FC
  6
BYBLOCK
 10
138.245416771029
 20
113.0000000000013
 30
0.0
 11
155.5932733039193
 21
113.0000000000013
 31
0.0
  0
LINE
  5
9318
  8
\M+19557\M+19290\M+190FC
  6
BYBLOCK
 10
138.2454167710318
 20
107.0000000000013
 30
0.0
 11
155.5932733039193
 21
107.0000000000013
 31
0.0
  0
LINE
  5
9319
  8
\M+19557\M+19290\M+190FC
  6
BYBLOCK
 10
154.7432733039193
 20
115.5000000000013
 30
0.0
 11
154.7432733039193
 21
118.0000000000013
 31
0.0
  0
LINE
  5
931A
  8
\M+19557\M+19290\M+190FC
  6
BYBLOCK
 10
154.7432733039193
 20
104.5000000000013
 30
0.0
 11
154.7432733039193
 21
102.0000000000013
 31
0.0
  0
LINE
  5
931B
  8
\M+19557\M+19290\M+190FC
  6
BYBLOCK
 10
154.7432733039193
 20
113.0000000000013
 30
0.0
 11
154.7432733039193
 21
107.0000000000013
 31
0.0
  0
INSERT
  5
931C
  8
\M+19557\M+19290\M+190FC
  2
_OPEN30
 10
154.7432733039193
 20
113.0000000000013
 30
0.0
 41
2.5
 42
2.5
 43
2.5
 50
270.0
  0
INSERT
  5
931D
  8
\M+19557\M+19290\M+190FC
  2
_OPEN30
 10
154.7432733039193
 20
107.0000000000013
 30
0.0
 41
2.5
 42
2.5
 43
2.5
 50
90.0
  0
TEXT
  5
931E
  8
\M+19557\M+19290\M+190FC
  6
CONTINUOUS
 62
     3
 10
153.8932733039192
 20
107.916666666668
 30
0.0
 40
2.5
  1
\U+22056
 50
90.0
  0
POINT
  5
931F
  8
DEFPOINTS
 62
     0
 10
137.395416771029
 20
113.0000000000013
 30
0.0
  0
POINT
  5
9320
  8
DEFPOINTS
 62
     0
 10
137.3954167710318
 20
107.0000000000013
 30
0.0
  0
POINT
  5
9321
  8
DEFPOINTS
 62
     0
 10
154.7432733039193
 20
107.0000000000013
 30
0.0
  0
ENDBLK
  8
0
  0
BLOCK
  8
0
  2
*D57
 70
     1
 10
0.0
 20
0.0
 30
0.0
  0
LINE
  5
9A4B
  8
\M+19557\M+19290\M+190FC
  6
BYBLOCK
 10
345.5282450114592
 20
113.0000000953608
 30
0.0
 11
337.8411791146053
 21
113.0000000953608
 31
0.0
  0
LINE
  5
9A4C
  8
\M+19557\M+19290\M+190FC
  6
BYBLOCK
 10
345.5282450114593
 20
107.0000000953602
 30
0.0
 11
337.8411791146053
 21
107.0000000953602
 31
0.0
  0
LINE
  5
9A4D
  8
\M+19557\M+19290\M+190FC
  6
BYBLOCK
 10
338.6911791146053
 20
115.5000000953608
 30
0.0
 11
338.6911791146053
 21
118.0000000953608
 31
0.0
  0
LINE
  5
9A4E
  8
\M+19557\M+19290\M+190FC
  6
BYBLOCK
 10
338.6911791146053
 20
104.5000000953602
 30
0.0
 11
338.6911791146053
 21
102.0000000953602
 31
0.0
  0
LINE
  5
9A4F
  8
\M+19557\M+19290\M+190FC
  6
BYBLOCK
 10
338.6911791146053
 20
113.0000000953608
 30
0.0
 11
338.6911791146053
 21
107.0000000953602
 31
0.0
  0
INSERT
  5
9A50
  8
\M+19557\M+19290\M+190FC
  2
_OPEN30
 10
338.6911791146053
 20
113.0000000953608
 30
0.0
 41
2.5
 42
2.5
 43
2.5
 50
270.0
  0
INSERT
  5
9A51
  8
\M+19557\M+19290\M+190FC
  2
_OPEN30
 10
338.6911791146053
 20
107.0000000953602
 30
0.0
 41
2.5
 42
2.5
 43
2.5
 50
90.0
  0
TEXT
  5
9A52
  8
\M+19557\M+19290\M+190FC
  6
CONTINUOUS
 62
     3
 10
337.8411791146053
 20
107.9166667620273
 30
0.0
 40
2.5
  1
\U+22056
 50
90.0
  0
POINT
  5
9A53
  8
DEFPOINTS
 62
     0
 10
346.3782450114592
 20
113.0000000953608
 30
0.0
  0
POINT
  5
9A54
  8
DEFPOINTS
 62
     0
 10
346.3782450114593
 20
107.0000000953602
 30
0.0
  0
POINT
  5
9A55
  8
DEFPOINTS
 62
     0
 10
338.6911791146053
 20
107.0000000953602
 30
0.0
  0
ENDBLK
  8
0
  0
BLOCK
  8
0
  2
*D58
 70
     1
 10
0.0
 20
0.0
 30
0.0
  0
LINE
  5
9A59
  8
\M+19557\M+19290\M+190FC
  6
BYBLOCK
 10
374.2952917746293
 20
114.7033268734405
 30
0.0
 11
390.0022866654232
 21
125.7014830985958
 31
0.0
  0
ARC
  5
9A5A
  8
\M+19557\M+19290\M+190FC
  6
BYBLOCK
 10
367.5782450114577
 20
110.0000000953606
 30
0.0
 40
26.52470022848956
 50
5.402229600042662
 51
29.59777039995753
  0
INSERT
  5
9A5B
  8
\M+19557\M+19290\M+190FC
  2
_OPEN30
 10
394.1029452399473
 20
110.0000000953606
 30
0.0
 41
2.5
 42
2.5
 43
2.5
 50
272.7011148000213
  0
INSERT
  5
9A5C
  8
\M+19557\M+19290\M+190FC
  2
_OPEN30
 10
389.3060074277776
 20
125.2139431276974
 30
0.0
 41
2.5
 42
2.5
 43
2.5
 50
122.2988851999788
  0
TEXT
  5
9A5D
  8
\M+19557\M+19290\M+190FC
  6
CONTINUOUS
 62
     3
 10
392.9417004066349
 20
114.9388569149189
 30
0.0
 40
2.5
  1
35°
 50
107.5000000000001
  0
POINT
  5
9A5E
  8
DEFPOINTS
 62
     0
 10
393.5549614253716
 20
115.3637605824008
 30
0.0
  0
POINT
  5
9A5F
  8
DEFPOINTS
 62
     0
 10
367.5782450114596
 20
110.0000000953619
 30
0.0
  0
POINT
  5
9A60
  8
DEFPOINTS
 62
     0
 10
416.8782450114594
 20
110.0000000953607
 30
0.0
  0
POINT
  5
9A61
  8
DEFPOINTS
 62
     0
 10
344.8782450114595
 20
110.0000000953605
 30
0.0
  0
POINT
  5
9A62
  8
DEFPOINTS
 62
     0
 10
373.5990125369837
 20
114.2157869025421
 30
0.0
  0
ENDBLK
  8
0
  0
BLOCK
  8
0
  2
*D59
 70
     1
 10
0.0
 20
0.0
 30
0.0
  0
LINE
  5
9A66
  8
\M+19557\M+19290\M+190FC
  6
BYBLOCK
 10
416.5282450114578
 20
113.0000000953619
 30
0.0
 11
433.8761015443481
 21
113.0000000953619
 31
0.0
  0
LINE
  5
9A67
  8
\M+19557\M+19290\M+190FC
  6
BYBLOCK
 10
416.5282450114606
 20
107.0000000953619
 30
0.0
 11
433.8761015443481
 21
107.0000000953619
 31
0.0
  0
LINE
  5
9A68
  8
\M+19557\M+19290\M+190FC
  6
BYBLOCK
 10
433.0261015443481
 20
115.5000000953619
 30
0.0
 11
433.0261015443481
 21
118.0000000953619
 31
0.0
  0
LINE
  5
9A69
  8
\M+19557\M+19290\M+190FC
  6
BYBLOCK
 10
433.0261015443481
 20
104.5000000953619
 30
0.0
 11
433.0261015443481
 21
102.0000000953619
 31
0.0
  0
LINE
  5
9A6A
  8
\M+19557\M+19290\M+190FC
  6
BYBLOCK
 10
433.0261015443481
 20
113.0000000953619
 30
0.0
 11
433.0261015443481
 21
107.0000000953619
 31
0.0
  0
INSERT
  5
9A6B
  8
\M+19557\M+19290\M+190FC
  2
_OPEN30
 10
433.0261015443481
 20
113.0000000953619
 30
0.0
 41
2.5
 42
2.5
 43
2.5
 50
270.0
  0
INSERT
  5
9A6C
  8
\M+19557\M+19290\M+190FC
  2
_OPEN30
 10
433.0261015443481
 20
107.0000000953619
 30
0.0
 41
2.5
 42
2.5
 43
2.5
 50
90.0
  0
TEXT
  5
9A6D
  8
\M+19557\M+19290\M+190FC
  6
CONTINUOUS
 62
     3
 10
432.176101544348
 20
107.9166667620287
 30
0.0
 40
2.5
  1
\U+22056
 50
90.0
  0
POINT
  5
9A6E
  8
DEFPOINTS
 62
     0
 10
415.6782450114578
 20
113.0000000953619
 30
0.0
  0
POINT
  5
9A6F
  8
DEFPOINTS
 62
     0
 10
415.6782450114606
 20
107.0000000953619
 30
0.0
  0
POINT
  5
9A70
  8
DEFPOINTS
 62
     0
 10
433.0261015443481
 20
107.0000000953619
 30
0.0
  0
ENDBLK
  8
0
  0
BLOCK
  8
0
  2
*D60
 70
     1
 10
0.0
 20
0.0
 30
0.0
  0
LINE
  5
9A74
  8
\M+19557\M+19290\M+190FC
  6
BYBLOCK
 10
355.8782450114592
 20
119.3500000953605
 30
0.0
 11
355.8782450114592
 21
129.4321552898036
 31
0.0
  0
LINE
  5
9A75
  8
\M+19557\M+19290\M+190FC
  6
BYBLOCK
 10
415.8782450114592
 20
113.6500000953605
 30
0.0
 11
415.8782450114592
 21
129.4321552898036
 31
0.0
  0
LINE
  5
9A76
  8
\M+19557\M+19290\M+190FC
  6
BYBLOCK
 10
358.3782450114592
 20
128.5821552898036
 30
0.0
 11
413.3782450114592
 21
128.5821552898036
 31
0.0
  0
INSERT
  5
9A77
  8
\M+19557\M+19290\M+190FC
  2
_OPEN30
 10
355.8782450114592
 20
128.5821552898036
 30
0.0
 41
2.5
 42
2.5
 43
2.5
 50
180.0
  0
INSERT
  5
9A78
  8
\M+19557\M+19290\M+190FC
  2
_OPEN30
 10
415.8782450114592
 20
128.5821552898036
 30
0.0
 41
2.5
 42
2.5
 43
2.5
  0
TEXT
  5
9A79
  8
\M+19557\M+19290\M+190FC
  6
CONTINUOUS
 62
     3
 10
384.0032450114592
 20
129.4321552898036
 30
0.0
 40
2.5
  1
60
  0
POINT
  5
9A7A
  8
DEFPOINTS
 62
     0
 10
355.8782450114592
 20
118.5000000953605
 30
0.0
  0
POINT
  5
9A7B
  8
DEFPOINTS
 62
     0
 10
415.8782450114592
 20
112.8000000953605
 30
0.0
  0
POINT
  5
9A7C
  8
DEFPOINTS
 62
     0
 10
415.8782450114592
 20
128.5821552898036
 30
0.0
  0
ENDBLK
  8
0
  0
BLOCK
  8
0
  2
*D61
 70
     1
 10
0.0
 20
0.0
 30
0.0
  0
LINE
  5
9A80
  8
\M+19557\M+19290\M+190FC
  6
BYBLOCK
 10
355.8782450114592
 20
119.3500000953605
 30
0.0
 11
355.8782450114592
 21
129.4321552898036
 31
0.0
  0
LINE
  5
9A81
  8
\M+19557\M+19290\M+190FC
  6
BYBLOCK
 10
345.8782450114592
 20
114.8687794856047
 30
0.0
 11
345.8782450114592
 21
129.4321552898036
 31
0.0
  0
LINE
  5
9A82
  8
\M+19557\M+19290\M+190FC
  6
BYBLOCK
 10
353.3782450114592
 20
128.5821552898036
 30
0.0
 11
348.3782450114592
 21
128.5821552898036
 31
0.0
  0
INSERT
  5
9A83
  8
\M+19557\M+19290\M+190FC
  2
_OPEN30
 10
355.8782450114592
 20
128.5821552898036
 30
0.0
 41
2.5
 42
2.5
 43
2.5
  0
INSERT
  5
9A84
  8
\M+19557\M+19290\M+190FC
  2
_OPEN30
 10
345.8782450114592
 20
128.5821552898036
 30
0.0
 41
2.5
 42
2.5
 43
2.5
 50
180.0
  0
TEXT
  5
9A85
  8
\M+19557\M+19290\M+190FC
  6
CONTINUOUS
 62
     3
 10
349.4199116781259
 20
129.4321552898036
 30
0.0
 40
2.5
  1
10
  0
POINT
  5
9A86
  8
DEFPOINTS
 62
     0
 10
355.8782450114592
 20
118.5000000953605
 30
0.0
  0
POINT
  5
9A87
  8
DEFPOINTS
 62
     0
 10
345.8782450114592
 20
114.0187794856047
 30
0.0
  0
POINT
  5
9A88
  8
DEFPOINTS
 62
     0
 10
345.8782450114592
 20
128.5821552898036
 30
0.0
  0
ENDBLK
  8
0
  0
BLOCK
  8
0
  2
*D62
 70
     1
 10
0.0
 20
0.0
 30
0.0
  0
LINE
  5
9A8C
  8
\M+19557\M+19290\M+190FC
  6
BYBLOCK
 10
416.2282450114593
 20
112.0000000953606
 30
0.0
 11
423.8761015443522
 21
112.0000000953606
 31
0.0
  0
LINE
  5
9A8D
  8
\M+19557\M+19290\M+190FC
  6
BYBLOCK
 10
416.2282450114593
 20
108.0000000953605
 30
0.0
 11
423.8761015443522
 21
108.0000000953605
 31
0.0
  0
LINE
  5
9A8E
  8
\M+19557\M+19290\M+190FC
  6
BYBLOCK
 10
423.0261015443522
 20
114.5000000953606
 30
0.0
 11
423.0261015443522
 21
117.0000000953606
 31
0.0
  0
LINE
  5
9A8F
  8
\M+19557\M+19290\M+190FC
  6
BYBLOCK
 10
423.0261015443522
 20
105.5000000953605
 30
0.0
 11
423.0261015443522
 21
97.13333342869383
 31
0.0
  0
LINE
  5
9A90
  8
\M+19557\M+19290\M+190FC
  6
BYBLOCK
 10
423.0261015443522
 20
112.0000000953606
 30
0.0
 11
423.0261015443522
 21
108.0000000953605
 31
0.0
  0
INSERT
  5
9A91
  8
\M+19557\M+19290\M+190FC
  2
_OPEN30
 10
423.0261015443522
 20
112.0000000953606
 30
0.0
 41
2.5
 42
2.5
 43
2.5
 50
270.0
  0
INSERT
  5
9A92
  8
\M+19557\M+19290\M+190FC
  2
_OPEN30
 10
423.0261015443522
 20
108.0000000953605
 30
0.0
 41
2.5
 42
2.5
 43
2.5
 50
90.0
  0
TEXT
  5
9A93
  8
\M+19557\M+19290\M+190FC
  6
CONTINUOUS
 62
     3
 10
422.1761015443522
 20
97.98333342869392
 30
0.0
 40
2.5
  1
\U+22054
 50
90.0
  0
POINT
  5
9A94
  8
DEFPOINTS
 62
     0
 10
415.3782450114592
 20
112.0000000953606
 30
0.0
  0
POINT
  5
9A95
  8
DEFPOINTS
 62
     0
 10
415.3782450114592
 20
108.0000000953605
 30
0.0
  0
POINT
  5
9A96
  8
DEFPOINTS
 62
     0
 10
423.0261015443522
 20
108.0000000953605
 30
0.0
  0
ENDBLK
  8
0
  0
BLOCK
  8
0
  2
*D63
 70
     1
 10
0.0
 20
0.0
 30
0.0
  0
LINE
  5
9A9A
  8
\M+19557\M+19290\M+190FC
  6
BYBLOCK
 10
374.2952917746292
 20
105.2966733172833
 30
0.0
 11
390.0052217599901
 21
94.2964619167868
 31
0.0
  0
ARC
  5
9A9B
  8
\M+19557\M+19290\M+190FC
  6
BYBLOCK
 10
367.5782450114614
 20
110.0000000953605
 30
0.0
 40
26.52828331734793
 50
330.4014993975511
 51
353.3717227506291
  0
ARC
  5
9A9C
  8
\M+19557\M+19290\M+190FC
  6
BYBLOCK
 10
367.5782450114614
 20
110.0000000953605
 30
0.0
 40
26.52828331734793
 50
353.6416977186081
 51
354.598500602449
  0
INSERT
  5
9A9D
  8
\M+19557\M+19290\M+190FC
  2
_OPEN30
 10
389.3089425223445
 20
94.7840018876852
 30
0.0
 41
2.5
 42
2.5
 43
2.5
 50
237.7007496987756
  0
INSERT
  5
9A9E
  8
\M+19557\M+19290\M+190FC
  2
_OPEN30
 10
394.1065283288094
 20
110.0000000953606
 30
0.0
 41
2.5
 42
2.5
 43
2.5
 50
87.2992503012246
  0
TEXT
  5
9A9F
  8
\M+19557\M+19290\M+190FC
  6
CONTINUOUS
 62
     3
 10
391.1910004954441
 20
99.49671694083798
 30
0.0
 40
2.5
  1
35°
 50
72.50000000000007
  0
POINT
  5
9AA0
  8
DEFPOINTS
 62
     0
 10
391.9369420413336
 20
99.4926838456049
 30
0.0
  0
POINT
  5
9AA1
  8
DEFPOINTS
 62
     0
 10
416.8782450114593
 20
110.0000000953607
 30
0.0
  0
POINT
  5
9AA2
  8
DEFPOINTS
 62
     0
 10
367.5782450114594
 20
110.0000000953619
 30
0.0
  0
POINT
  5
9AA3
  8
DEFPOINTS
 62
     0
 10
373.5990125369836
 20
105.7842132881817
 30
0.0
  0
POINT
  5
9AA4
  8
DEFPOINTS
 62
     0
 10
344.8782450114595
 20
110.0000000953605
 30
0.0
  0
ENDBLK
  8
0
  0
BLOCK
  8
0
  2
*D64
 70
     1
 10
0.0
 20
0.0
 30
0.0
  0
LINE
  5
9AA8
  8
\M+19557\M+19290\M+190FC
  6
BYBLOCK
 10
464.2573505686441
 20
115.7574773834725
 30
0.0
 11
464.2573505686441
 21
129.4321552898036
 31
0.0
  0
LINE
  5
9AA9
  8
\M+19557\M+19290\M+190FC
  6
BYBLOCK
 10
481.2573505686444
 20
115.7574773834725
 30
0.0
 11
481.2573505686444
 21
129.4321552898036
 31
0.0
  0
LINE
  5
9AAA
  8
\M+19557\M+19290\M+190FC
  6
BYBLOCK
 10
466.7573505686441
 20
128.5821552898036
 30
0.0
 11
478.7573505686444
 21
128.5821552898036
 31
0.0
  0
INSERT
  5
9AAB
  8
\M+19557\M+19290\M+190FC
  2
_OPEN30
 10
464.2573505686441
 20
128.5821552898036
 30
0.0
 41
2.5
 42
2.5
 43
2.5
 50
180.0
  0
INSERT
  5
9AAC
  8
\M+19557\M+19290\M+190FC
  2
_OPEN30
 10
481.2573505686444
 20
128.5821552898036
 30
0.0
 41
2.5
 42
2.5
 43
2.5
  0
TEXT
  5
9AAD
  8
\M+19557\M+19290\M+190FC
  6
CONTINUOUS
 62
     3
 10
471.0906839019776
 20
129.4321552898036
 30
0.0
 40
2.5
  1
17
  0
POINT
  5
9AAE
  8
DEFPOINTS
 62
     0
 10
464.2573505686441
 20
114.9074773834725
 30
0.0
  0
POINT
  5
9AAF
  8
DEFPOINTS
 62
     0
 10
481.2573505686444
 20
114.9074773834725
 30
0.0
  0
POINT
  5
9AB0
  8
DEFPOINTS
 62
     0
 10
481.2573505686444
 20
128.5821552898036
 30
0.0
  0
ENDBLK
  8
0
  0
BLOCK
  8
0
  2
*X65
 70
     1
 10
0.0
 20
0.0
 30
0.0
  0
TEXT
  5
9C49
  8
DIM
  6
CONTINUOUS
 10
4.845558577836869
 20
24.4079207313115
 30
0.0
 40
5.000000000000001
  1
備註：
  7
TW
  0
TEXT
  5
9C4A
  8
DIM
  6
CONTINUOUS
 10
4.845558577836869
 20
17.57458739797816
 30
0.0
 40
3.5
  1
表面處理：染黑(主體、鋼管)；鍍鉻(鋼球)
  7
TW
  0
ENDBLK
  8
0
  0
BLOCK
  8
0
  2
*X66
 70
     1
 10
0.0
 20
0.0
 30
0.0
  0
INSERT
  5
9C4C
  8
\M+19557\M+19290\M+190FC
  2
_OPEN30
 10
72.14456289219515
 20
114.7405358162865
 30
0.0
 41
2.5
 42
2.5
 43
2.5
 50
315.0000000000001
  0
LINE
  5
9C4D
  8
\M+19557\M+19290\M+190FC
 10
70.37679593922878
 20
116.5083027692529
 30
0.0
 11
64.73463141613817
 21
122.1504672923435
 31
0.0
  0
LINE
  5
9C4E
  8
\M+19557\M+19290\M+190FC
 10
64.73463141613817
 20
122.1504672923435
 30
0.0
 11
52.99747244292276
 21
122.1504672923435
 31
0.0
  0
ENDBLK
  8
0
  0
BLOCK
  8
0
  2
*X67
 70
     1
 10
0.0
 20
0.0
 30
0.0
  0
TEXT
  5
9C5A
  8
DM
  6
CONTINUOUS
 10
283.6524970886235
 20
24.24575573436363
 30
0.0
 40
5.0
  1
備考
  0
TEXT
  5
9C5B
  8
DM
  6
CONTINUOUS
 10
291.9858304219568
 20
24.24575573436363
 30
0.0
 40
5.0
  1
:
  0
TEXT
  5
9C5C
  8
DM
  6
CONTINUOUS
 10
283.6524970886235
 20
18.24575573436363
 30
0.0
 40
3.5
  1
表面\U+51E6理:\U+9ED2染(主体.\U+30CE\U+30BA\U+30EB),
  0
TEXT
  5
9C5D
  8
DM
  6
CONTINUOUS
 10
283.6524970886235
 20
12.74575573436363
 30
0.0
 40
3.5
  1
        \U+30AF\U+30ED\U+30FC\U+30E0\U+30E1\U+30C3\U+30AD(鋼球)
  0
ENDBLK
  8
0
  0
BLOCK
  8
0
  2
*X68
 70
     1
 10
0.0
 20
0.0
 30
0.0
  0
INSERT
  5
9C5F
  8
\M+19557\M+19290\M+190FC
  2
_OPEN30
 10
350.427391132624
 20
114.7405359116472
 30
0.0
 41
2.5
 42
2.5
 43
2.5
 50
315.0000000000002
  0
LINE
  5
9C60
  8
\M+19557\M+19290\M+190FC
 10
348.6596241796576
 20
116.5083028646135
 30
0.0
 11
343.017459656567
 21
122.1504673877041
 31
0.0
  0
LINE
  5
9C61
  8
\M+19557\M+19290\M+190FC
 10
343.017459656567
 20
122.1504673877041
 30
0.0
 11
331.2803006833516
 21
122.1504673877041
 31
0.0
  0
ENDBLK
  8
0
  0
ENDSEC
  0
SECTION
  2
ENTITIES
  0
INSERT
  5
995
  8
BOWEL
  2
*U3
 10
0.0
 20
0.0
 30
0.0
  0
INSERT
  5
A1C
  8
BOWEL
  2
*U4
 10
0.0
 20
0.0
 30
0.0
  0
POLYLINE
  5
4CAF
  8
FRAME
 66
     1
 10
0.0
 20
0.0
 30
0.0
 70
     1
  0
VERTEX
  5
9C44
  8
FRAME
 10
280.0000000000001
 20
-0.0000000000000568
 30
0.0
  0
VERTEX
  5
9C45
  8
FRAME
 10
280.0000000000001
 20
190.0
 30
0.0
  0
VERTEX
  5
9C46
  8
FRAME
 10
0.0
 20
190.0
 30
0.0
  0
VERTEX
  5
9C47
  8
FRAME
 10
0.0
 20
0.0
 30
0.0
  0
SEQEND
  5
9C72
  8
FRAME
  0
LINE
  5
4CB0
  8
FRAME
 10
90.00000000000013
 20
9.999999999999945
 30
0.0
 11
280.0000000000001
 21
9.999999999999945
 31
0.0
  0
LINE
  5
4CB1
  8
FRAME
 10
90.00000000000013
 20
19.99999999999995
 30
0.0
 11
195.0000000000001
 21
19.99999999999995
 31
0.0
  0
LINE
  5
4CB2
  8
FRAME
 10
90.00000000000013
 20
30.00000000000001
 30
0.0
 11
280.0000000000001
 21
30.00000000000001
 31
0.0
  0
LINE
  5
4CB3
  8
FRAME
 10
250.0000000000001
 20
-0.0000000000000568
 30
0.0
 11
250.0000000000001
 21
9.999999999999945
 31
0.0
  0
LINE
  5
4CB4
  8
FRAME
 10
240.0000000000001
 20
9.999999999999945
 30
0.0
 11
240.0000000000001
 21
30.00000000000001
 31
0.0
  0
LINE
  5
4CB5
  8
FRAME
 10
195.0000000000001
 20
30.00000000000001
 30
0.0
 11
195.0000000000001
 21
-0.0000000000000568
 31
0.0
  0
LINE
  5
4CB6
  8
FRAME
 10
100.0000000000001
 20
30.00000000000001
 30
0.0
 11
100.0000000000001
 21
9.999999999999945
 31
0.0
  0
LINE
  5
4CB7
  8
FRAME
 10
125.0000000000001
 20
30.00000000000001
 30
0.0
 11
125.0000000000001
 21
9.999999999999945
 31
0.0
  0
LINE
  5
4CB8
  8
FRAME
 10
135.0000000000001
 20
19.99999999999995
 30
0.0
 11
135.0000000000001
 21
9.999999999999945
 31
0.0
  0
LINE
  5
4CB9
  8
FRAME
 10
170.0000000000001
 20
29.99999999999998
 30
0.0
 11
170.0000000000001
 21
9.999999999999917
 31
0.0
  0
CIRCLE
  5
4CBA
  8
0
 10
135.5679281581437
 20
24.99999999999995
 30
0.0
 40
2.5
  0
CIRCLE
  5
4CBB
  8
0
 10
135.5679281581437
 20
24.99999999999995
 30
0.0
 40
1.25
  0
LINE
  5
4CBC
  8
0
 10
135.5679281581437
 20
27.99999999999995
 30
0.0
 11
135.5679281581437
 21
21.99999999999995
 31
0.0
  0
LINE
  5
4CBD
  8
0
 10
132.5679281581437
 20
24.99999999999995
 30
0.0
 11
138.5679281581437
 21
24.99999999999995
 31
0.0
  0
LINE
  5
4CBE
  8
0
 10
143.7317768290169
 20
26.24999999999995
 30
0.0
 11
143.7317768290169
 21
23.74999999999995
 31
0.0
  0
LINE
  5
4CBF
  8
0
 10
148.7317768290169
 20
27.49999999999995
 30
0.0
 11
148.7317768290169
 21
22.49999999999995
 31
0.0
  0
LINE
  5
4CC0
  8
0
 10
143.7317768290169
 20
23.74999999999995
 30
0.0
 11
148.7317768290169
 21
22.49999999999995
 31
0.0
  0
LINE
  5
4CC1
  8
0
 10
143.7317768290169
 20
26.24999999999995
 30
0.0
 11
148.7317768290169
 21
27.49999999999995
 31
0.0
  0
LINE
  5
4CC2
  8
0
 10
143.2317768290169
 20
24.99999999999995
 30
0.0
 11
149.2317768290169
 21
24.99999999999995
 31
0.0
  0
TEXT
  5
4CC3
  8
0
  6
CONTINUOUS
 10
91.63818356075662
 20
22.14829932738889
 30
0.0
 40
5.000000000000001
  1
日 付
 41
0.5
  7
TW
  0
TEXT
  5
4CC4
  8
0
  6
CONTINUOUS
 10
111.0013151802306
 20
1.157783016023757
 30
0.0
 40
7.000000000000002
  1
日機株式會社
 41
1.5
  7
TW
  0
TEXT
  5
4CC5
  8
0
  6
CONTINUOUS
 10
161.6381835607566
 20
22.14829932738889
 30
0.0
 40
5.000000000000001
  1
尺 度
 41
0.5
  7
TW
  0
TEXT
  5
4CC6
  8
0
  6
CONTINUOUS
 10
161.6381835607566
 20
12.14829932738886
 30
0.0
 40
5.000000000000001
  1
承 認
 41
0.5
  7
TW
  0
TEXT
  5
4CC7
  8
0
  6
CONTINUOUS
 10
196.6381835607565
 20
22.14829932738892
 30
0.0
 40
5.000000000000001
  1
品 名
 41
0.5
  7
TW
  0
TEXT
  5
4CC8
  8
0
  6
CONTINUOUS
 10
241.6381835607565
 20
22.14829932738892
 30
0.0
 40
5.000000000000001
  1
型 番
 41
0.5
  7
TW
  0
LINE
  5
4CC9
  8
FRAME
 10
160.0000000000001
 20
30.00000000000001
 30
0.0
 11
160.0000000000001
 21
10.00000000000006
 31
0.0
  0
LINE
  5
4CCA
  8
FRAME
 10
90.00000000000013
 20
30.00000000000001
 30
0.0
 11
90.00000000000013
 21
0.0
 31
0.0
  0
TEXT
  5
4CCB
  8
0
  6
CONTINUOUS
 10
105.0060611150887
 20
22.14829932738889
 30
0.0
 40
5.000000000000001
  1
2016.09.05
 41
0.4
  7
TW
  0
TEXT
  5
4CCC
  8
0
  6
CONTINUOUS
 10
105.5045478400782
 20
12.14829932738889
 30
0.0
 40
5.000000000000001
  1
陳   翎
 41
0.5
  7
TW
  0
TEXT
  5
4CCD
  8
0
  6
CONTINUOUS
 10
175.8885809250553
 20
22.14829932738886
 30
0.0
 40
5.000000000000001
  1
NOT/S
 41
0.5
  7
TW
  0
TEXT
  5
4CCF
  8
0
  6
CONTINUOUS
 10
224.0476709116377
 20
2.370339133368902
 30
0.0
 40
5.000000000000001
  1
NP80092
 41
0.5
  7
TW
  0
TEXT
  5
4D16
  8
0
  6
CONTINUOUS
 10
206.2844410483336
 20
13.89647518893111
 30
0.0
 40
5.000000000000001
  1
旋 迴 噴 水 頭
 41
0.5
  7
TW
  0
TEXT
  5
4D17
  8
0
  6
CONTINUOUS
 10
91.63818356075662
 20
12.14829932738889
 30
0.0
 40
5.000000000000001
  1
製 圖
 41
0.5
  7
TW
  0
TEXT
  5
4D18
  8
0
  6
CONTINUOUS
 10
126.6381835607566
 20
12.14829932738889
 30
0.0
 40
5.000000000000001
  1
檢 圖
 41
0.5
  7
TW
  0
TEXT
  5
4D19
  8
0
  6
CONTINUOUS
 10
196.6381835607565
 20
2.148299327388856
 30
0.0
 40
5.000000000000001
  1
圖面番號
 41
0.5
  7
TW
  0
TEXT
  5
4D1A
  8
0
  6
CONTINUOUS
 10
251.6381835607565
 20
2.148299327388856
 30
0.0
 40
5.000000000000001
  1
變更
 41
0.5
  7
TW
  0
INSERT
  5
4D1B
  8
DIM
  2
*X65
 10
0.0
 20
0.0
 30
0.0
  0
ARC
  5
6C59
  8
本體外線
 10
76.79541677103089
 20
115.7999999999989
 30
0.0
 40
0.8
 50
270.0
 51
0.0
  0
ARC
  5
6C5B
  8
本體外線
 10
76.79541677103043
 20
104.199999999999
 30
0.0
 40
0.8
 50
0.0
 51
90.0
  0
LINE
  5
6C5C
  8
本體外線
 10
67.59541677103039
 20
114.018779390244
 30
0.0
 11
67.59541677103084
 21
105.9812206097557
 31
0.0
  0
LINE
  5
6C5D
  8
本體內線
 10
68.09541677103039
 20
113.0000000000001
 30
0.0
 11
67.59541677103039
 21
113.5000000000001
 31
0.0
  0
LINE
  5
6C5F
  8
本體外線
 10
91.83622739247579
 20
119.8149545762238
 30
0.0
 11
81.35460614958578
 21
119.8149545762235
 31
0.0
  0
LINE
  5
6C60
  8
本體外線
 10
91.83622739247579
 20
100.1850454237764
 30
0.0
 11
81.35460614958572
 21
100.1850454237763
 31
0.0
  0
LINE
  5
6C61
  8
本體內線
 10
68.09541677103039
 20
113.0000000000002
 30
0.0
 11
77.59541677103061
 21
113.0
 31
0.0
  0
LINE
  5
6C62
  8
本體外線
 10
76.09541677103084
 20
114.8640000000001
 30
0.0
 11
68.19370901335947
 21
114.6170716325729
 31
0.0
  0
LINE
  5
6C63
  8
本體外線
 62
     4
 10
75.03150958625224
 20
114.2497529004755
 30
0.0
 11
67.59541677103016
 21
114.0173749999998
 31
0.0
  0
LINE
  5
6C64
  8
本體外線
 10
67.59541677103039
 20
114.018779390244
 30
0.0
 11
68.19370901335924
 21
114.6170716325727
 31
0.0
  0
LINE
  5
6C65
  8
本體外線
 10
76.0954167710297
 20
105.1359999999978
 30
0.0
 11
68.19370901335901
 21
105.3829283674266
 31
0.0
  0
LINE
  5
6C66
  8
本體外線
 62
     4
 10
75.03150958625588
 20
105.7502470995222
 30
0.0
 11
67.59541677102925
 21
105.982625
 31
0.0
  0
LINE
  5
6C67
  8
本體內線
 10
68.09541677103039
 20
113.0000000000001
 30
0.0
 11
68.09541677103033
 21
106.9999999999996
 31
0.0
  0
LINE
  5
6C68
  8
本體外線
 10
67.59541677103039
 20
105.9812206097557
 30
0.0
 11
68.19370901335924
 21
105.3829283674271
 31
0.0
  0
LINE
  5
6C6A
  8
本體外線
 10
76.09541677103294
 20
114.999999999999
 30
0.0
 11
76.0954167710297
 21
104.999999999999
 31
0.0
  0
LINE
  5
6C6B
  8
本體外線
 10
76.09541677103107
 20
114.999999999999
 30
0.0
 11
76.79541677103089
 21
114.9999999999987
 31
0.0
  0
LINE
  5
6C6C
  8
本體外線
 10
76.0954167710297
 20
104.999999999999
 30
0.0
 11
76.79541677103043
 21
104.999999999999
 31
0.0
  0
LINE
  5
6C6D
  8
本體外線
 62
     4
 10
75.03150958625247
 20
114.2497529004758
 30
0.0
 11
76.09541677103084
 21
114.8640000000001
 31
0.0
  0
LINE
  5
6C6E
  8
本體外線
 62
     4
 10
75.03150958625247
 20
105.7502470995245
 30
0.0
 11
76.09541677103084
 21
105.1360000000001
 31
0.0
  0
LINE
  5
6C70
  8
本體外線
 10
80.5954167710307
 20
118.4999999999997
 30
0.0
 11
80.59541677103076
 21
101.5
 31
0.0
  0
LINE
  5
6C73
  8
本體外線
 10
78.35460614958518
 20
100.1850454237764
 30
0.0
 11
79.83622739247559
 21
100.1850454237764
 31
0.0
  0
LINE
  5
6C7D
  8
本體外線
 10
92.59541677103073
 20
101.5
 30
0.0
 11
92.59541677103073
 21
118.5
 31
0.0
  0
LINE
  5
6C7F
  8
本體外線
 10
80.59541677103064
 20
118.4999999999996
 30
0.0
 11
80.59541677103061
 21
117.0
 31
0.0
  0
LINE
  5
6C81
  8
本體外線
 10
80.59541677103039
 20
109.9999999999999
 30
0.0
 11
80.59541677103039
 21
101.5
 31
0.0
  0
LINE
  5
6C87
  8
中心線
 10
138.5954167710304
 20
110.0
 30
0.0
 11
66.59541677103061
 21
109.9999999999999
 31
0.0
  0
LINE
  5
6C88
  8
本體外線
 10
80.59541677103073
 20
115.5
 30
0.0
 11
80.59541677103073
 21
109.9999999999999
 31
0.0
  0
LINE
  5
6C8B
  8
本體外線
 10
79.83622739247554
 20
105.0925227118882
 30
0.0
 11
78.35460614958525
 21
105.0925227118882
 31
0.0
  0
ARC
  5
6C8C
  8
本體外線
 10
64.35460614959425
 20
109.9999999999999
 30
0.0
 40
16.24081062143647
 50
342.4120462259971
 51
0.0
  0
ARC
  5
6C8D
  8
本體外線
 10
76.25051809871093
 20
102.6387840678322
 30
0.0
 40
4.344898672319456
 50
325.6157525319594
 51
34.38424746804237
  0
LINE
  5
6C8E
  8
本體外線
 10
80.59541677103039
 20
101.4999999999999
 30
0.0
 11
80.03684441597014
 21
100.507615962789
 31
0.0
  0
LINE
  5
6C8F
  8
本體外線
 10
92.59541677103073
 20
118.5
 30
0.0
 11
91.83622739247579
 21
119.8149545762237
 31
0.0
  0
LINE
  5
6C90
  8
本體外線
 10
91.83622739247579
 20
105.0925227118883
 30
0.0
 11
81.35460614958572
 21
105.0925227118882
 31
0.0
  0
ARC
  5
6C91
  8
本體外線
 10
76.35460614958754
 20
110.0000000000001
 30
0.0
 40
16.2408106214432
 50
342.4120462260038
 51
0.0
  0
ARC
  5
6C92
  8
本體外線
 10
88.25051809871186
 20
102.6387840678323
 30
0.0
 40
4.344898672318863
 50
325.6157525319545
 51
34.38424746804549
  0
LINE
  5
6C93
  8
本體外線
 10
92.59541677103073
 20
101.5
 30
0.0
 11
92.03684441597048
 21
100.5076159627891
 31
0.0
  0
LINE
  5
6C96
  8
本體外線
 10
68.19370901335901
 20
105.3829283674266
 30
0.0
 11
68.19370901335947
 21
114.6170716325729
 31
0.0
  0
LINE
  5
6C9C
  8
本體外線
 10
94.49541677103065
 20
113.6445164288298
 30
0.0
 11
94.49541677103065
 21
106.3554835711728
 31
0.0
  0
ARC
  5
6CA3
  8
本體外線
 10
89.29541677103074
 20
110.0000000000013
 30
0.0
 40
6.35
 50
301.3111269331479
 51
324.9745948331294
  0
ARC
  5
6CA4
  8
本體外線
 10
89.29541677103074
 20
110.0000000000013
 30
0.0
 40
6.35
 50
35.02540516687059
 51
58.68887306685207
  0
ARC
  5
6CDC
  8
本體外線
 10
81.94031544334986
 20
102.6387840678322
 30
0.0
 40
4.344898672319456
 50
145.6157525319576
 51
214.3842474680403
  0
ARC
  5
6CDE
  8
本體外線
 10
93.83622739246653
 20
109.9999999999999
 30
0.0
 40
16.24081062143647
 50
180.0
 51
197.5879537740028
  0
LINE
  5
6CDF
  8
本體外線
 10
77.59541677103039
 20
101.4999999999999
 30
0.0
 11
78.15398912609064
 21
100.507615962789
 31
0.0
  0
LINE
  5
6CE0
  8
本體外線
 10
78.35460614958518
 20
119.8149545762234
 30
0.0
 11
79.83622739247559
 21
119.8149545762234
 31
0.0
  0
LINE
  5
6CE1
  8
本體外線
 10
79.83622739247554
 20
114.9074772881117
 30
0.0
 11
78.35460614958525
 21
114.9074772881117
 31
0.0
  0
ARC
  5
6CE2
  8
本體外線
 10
64.35460614959425
 20
109.9999999999999
 30
0.0
 40
16.24081062143647
 50
0.0
 51
17.58795377400288
  0
ARC
  5
6CE3
  8
本體外線
 10
76.25051809871093
 20
117.3612159321676
 30
0.0
 40
4.344898672319456
 50
325.6157525319576
 51
34.38424746804044
  0
LINE
  5
6CE4
  8
本體外線
 10
80.59541677103039
 20
118.4999999999999
 30
0.0
 11
80.03684441597014
 21
119.4923840372109
 31
0.0
  0
ARC
  5
6CE5
  8
本體外線
 10
81.94031544334986
 20
117.3612159321676
 30
0.0
 40
4.344898672319456
 50
145.6157525319595
 51
214.3842474680424
  0
ARC
  5
6CE6
  8
本體外線
 10
93.83622739246653
 20
109.9999999999999
 30
0.0
 40
16.24081062143647
 50
162.412046225997
 51
180.0
  0
LINE
  5
6CE7
  8
本體外線
 10
77.59541677103039
 20
118.4999999999999
 30
0.0
 11
78.15398912609064
 21
119.4923840372109
 31
0.0
  0
LINE
  5
6CE8
  8
CONTOUR
 10
77.59541677103039
 20
118.4999999999999
 30
0.0
 11
77.59541677103039
 21
101.4999999999999
 31
0.0
  0
ARC
  5
6CE9
  8
本體外線
 10
96.83622739247394
 20
110.0000000000001
 30
0.0
 40
16.2408106214432
 50
180.0
 51
197.5879537739961
  0
ARC
  5
6CEA
  8
本體外線
 10
84.94031544334962
 20
102.6387840678323
 30
0.0
 40
4.344898672318863
 50
145.6157525319545
 51
214.3842474680454
  0
LINE
  5
6CEB
  8
本體外線
 10
80.59541677103076
 20
101.5
 30
0.0
 11
81.153989126091
 21
100.5076159627891
 31
0.0
  0
ARC
  5
6CEC
  8
本體外線
 10
96.83622739247394
 20
109.9999999999997
 30
0.0
 40
16.2408106214432
 50
162.4120462260038
 51
180.0
  0
ARC
  5
6CED
  8
本體外線
 10
84.94031544334962
 20
117.3612159321675
 30
0.0
 40
4.344898672318863
 50
145.6157525319547
 51
214.3842474680453
  0
LINE
  5
6CEE
  8
本體外線
 10
80.59541677103076
 20
118.4999999999998
 30
0.0
 11
81.153989126091
 21
119.4923840372106
 31
0.0
  0
LINE
  5
6CEF
  8
本體外線
 10
91.83622739247579
 20
114.9074772881116
 30
0.0
 11
81.35460614958572
 21
114.9074772881117
 31
0.0
  0
ARC
  5
6CF0
  8
本體外線
 10
76.35460614958754
 20
109.9999999999999
 30
0.0
 40
16.2408106214432
 50
0.0
 51
17.58795377399617
  0
ARC
  5
6CF1
  8
本體外線
 10
88.25051809871186
 20
117.3612159321677
 30
0.0
 40
4.344898672318863
 50
325.6157525319536
 51
34.38424746804649
  0
LINE
  5
6F1F
  8
CONTOUR
 10
137.5954167710304
 20
112.7999999999999
 30
0.0
 11
137.5954167710304
 21
107.1999999999999
 31
0.0
  0
LINE
  5
6F20
  8
CONTOUR
 10
93.57986079125708
 20
113.0000000000013
 30
0.0
 11
137.395416771029
 21
113.0000000000013
 31
0.0
  0
LINE
  5
6F21
  8
CONTOUR
 10
93.57986079125715
 20
107.0000000000013
 30
0.0
 11
137.3954167710318
 21
107.0000000000013
 31
0.0
  0
LINE
  5
6F22
  8
CONTOUR
 10
137.5954167710304
 20
107.1999999999999
 30
0.0
 11
137.3954167710304
 21
106.9999999999999
 31
0.0
  0
LINE
  5
6F23
  8
CONTOUR
 10
137.3954167710303
 20
112.9999999999999
 30
0.0
 11
137.5954167710304
 21
112.7999999999999
 31
0.0
  0
LINE
  5
6F2A
  8
本體內線
 10
137.0954167710304
 20
111.9999999999999
 30
0.0
 11
137.5954167710304
 21
112.4999999999999
 31
0.0
  0
LINE
  5
6F30
  8
本體內線
 10
137.0954167710304
 20
107.9999999999999
 30
0.0
 11
137.5954167710304
 21
107.4999999999999
 31
0.0
  0
LINE
  5
6F31
  8
本體內線
 10
137.0954167710304
 20
107.9999999999999
 30
0.0
 11
137.0954167710304
 21
111.9999999999999
 31
0.0
  0
LINE
  5
6F34
  8
本體內線
 10
137.0954167710318
 20
112.0000000000013
 30
0.0
 11
92.59541677103073
 21
112.0000000000013
 31
0.0
  0
LINE
  5
6F35
  8
本體內線
 10
137.0954167710287
 20
108.0000000000015
 30
0.0
 11
92.59541677103073
 21
108.0000000000013
 31
0.0
  0
LINE
  5
6F37
  8
中心線
 10
89.29541677103074
 20
110.0000000000013
 30
0.0
 11
95.31618429655484
 21
114.2157868071815
 31
0.0
  0
LINE
  5
6F38
  8
中心線
 10
89.29541677103074
 20
110.0000000000013
 30
0.0
 11
95.31618429655484
 21
105.7842131928211
 31
0.0
  0
LINE
  5
6FB8
  8
本體內線
 10
68.09541677103039
 20
106.9999999999997
 30
0.0
 11
67.59541677103039
 21
106.4999999999997
 31
0.0
  0
LINE
  5
6FB9
  8
本體內線
 10
68.09541677103039
 20
106.9999999999996
 30
0.0
 11
77.59541677103061
 21
106.9999999999998
 31
0.0
  0
DIMENSION
  5
6FE6
  8
\M+19557\M+19290\M+190FC
  2
*D22
 10
137.5954167710304
 20
128.5821551944429
 30
0.0
 11
107.5954167710304
 21
130.6821551944429
 31
0.0
 70
    32
 13
77.59541677103039
 23
118.4999999999999
 33
0.0
 14
137.5954167710304
 24
112.7999999999999
 34
0.0
  0
DIMENSION
  5
6FFE
  8
\M+19557\M+19290\M+190FC
  2
*D23
 10
67.59541677103039
 20
128.5821551944429
 30
0.0
 11
72.59541677103039
 21
130.6821551944429
 31
0.0
 70
    32
 13
77.59541677103039
 23
118.4999999999999
 33
0.0
 14
67.59541677103039
 24
114.018779390244
 34
0.0
  0
DIMENSION
  5
70E2
  8
\M+19557\M+19290\M+190FC
  2
*D24
 10
144.7432733039234
 20
107.9999999999999
 30
0.0
 11
144.7432733039233
 21
100.0666666666666
 31
0.0
 70
   160
  1
%%c<>
 13
137.0954167710304
 23
111.9999999999999
 33
0.0
 14
137.0954167710304
 24
107.9999999999999
 34
0.0
 50
90.0
  0
DIMENSION
  5
72C6
  8
\M+19557\M+19290\M+190FC
  2
*D25
 10
66.59541677103061
 20
109.9999999999999
 30
0.0
 11
112.5930846484675
 21
102.65427353454
 31
0.0
 70
    34
 13
89.29541677103074
 23
110.0000000000013
 33
0.0
 14
95.31618429655484
 24
105.7842131928211
 34
0.0
 15
138.5954167710304
 25
110.0
 35
0.0
 16
113.6541138009048
 26
99.4926837502444
 36
0.0
  0
INSERT
  5
7378
  8
\M+19557\M+19290\M+190FC
  2
*X66
 10
0.0
 20
0.0
 30
0.0
  0
TEXT
  5
7398
  8
\M+19557\M+19290\M+190FC
  6
CONTINUOUS
 62
     3
 10
53.44040753557007
 20
123.3761511371017
 30
0.0
 40
2.5
  1
PT1/8
  0
CIRCLE
  5
73F3
  8
本體外線
 10
194.4745223282154
 20
110.0
 30
0.0
 40
2.500000000001336
  0
LINE
  5
73F5
  8
中心線
 10
194.4745223282154
 20
99.03034488539696
 30
0.0
 11
194.4745223282154
 21
120.969655114603
 31
0.0
  0
CIRCLE
  5
73F9
  8
本體外線
 10
194.4745223282154
 20
110.0
 30
0.0
 40
3.644516428829832
  0
CIRCLE
  5
73FA
  8
本體外線
 10
194.4745223282154
 20
110.0
 30
0.0
 40
5.425172808308915
  0
CIRCLE
  5
73FB
  8
本體外線
 10
194.4745223282154
 20
110.0
 30
0.0
 40
8.500000000000028
  0
POLYLINE
  5
73FC
  8
本體外線
 66
     1
 10
0.0
 20
0.0
 30
0.0
 70
     1
  0
VERTEX
  5
9C4F
  8
本體外線
 10
194.4745223282154
 20
119.8149545762238
 30
0.0
  0
VERTEX
  5
9C50
  8
本體外線
 10
185.9745223282153
 20
114.9074772881119
 30
0.0
  0
VERTEX
  5
9C51
  8
本體外線
 10
185.9745223282153
 20
105.0925227118881
 30
0.0
  0
VERTEX
  5
9C52
  8
本體外線
 10
194.4745223282154
 20
100.1850454237762
 30
0.0
  0
VERTEX
  5
9C53
  8
本體外線
 10
202.9745223282156
 20
105.0925227118881
 30
0.0
  0
VERTEX
  5
9C54
  8
本體外線
 10
202.9745223282156
 20
114.9074772881119
 30
0.0
  0
SEQEND
  5
9C73
  8
本體外線
  0
LINE
  5
73FF
  8
中心線
 10
184.9745223282153
 20
110.0
 30
0.0
 11
203.9745223282156
 21
110.0
 31
0.0
  0
CIRCLE
  5
7400
  8
本體外線
 10
194.4745223282154
 20
110.0
 30
0.0
 40
2.0
  0
DIMENSION
  5
7409
  8
\M+19557\M+19290\M+190FC
  2
*D26
 10
202.9745223282156
 20
128.5821551944429
 30
0.0
 11
194.4745223282154
 21
130.6821551944429
 31
0.0
 70
    32
 13
185.9745223282153
 23
114.9074772881119
 33
0.0
 14
202.9745223282156
 24
114.9074772881119
 34
0.0
  0
TEXT
  5
742C
  8
0
  6
CONTINUOUS
 10
241.5343346053017
 20
13.89647518893111
 30
0.0
 40
5.000000000000001
  1
NNPT1/8H-60
 41
0.5
  7
TW
  0
DIMENSION
  5
7485
  8
\M+19557\M+19290\M+190FC
  2
*D27
 10
60.40835087417652
 20
106.9999999999996
 30
0.0
 11
58.3083508741765
 21
109.9999999999999
 31
0.0
 70
    32
  1
%%c<>
 13
68.09541677103039
 23
113.0000000000002
 33
0.0
 14
68.0954167710305
 24
106.9999999999996
 34
0.0
 50
90.0
  0
DIMENSION
  5
84A0
  8
\M+19557\M+19290\M+190FC
  2
*D33
 10
95.31618429655484
 20
114.2157868071815
 30
0.0
 11
112.5896673958834
 21
117.3446490098601
 31
0.0
 70
    34
 13
138.5954167710304
 23
110.0
 33
0.0
 14
66.59541677103061
 24
109.9999999999999
 34
0.0
 15
89.29541677103074
 25
110.0000000000013
 35
0.0
 16
115.2721331849427
 26
115.3637604870402
 36
0.0
  0
CIRCLE
  5
851D
  8
本體外線
 10
194.4745223282154
 20
110.0
 30
0.0
 40
3.000000000001307
  0
DIMENSION
  5
853F
  8
\M+19557\M+19290\M+190FC
  2
*D34
 10
154.7432733039193
 20
107.0000000000013
 30
0.0
 11
154.7432733039192
 21
110.0000000000013
 31
0.0
 70
   160
  1
%%c<>
 13
137.395416771029
 23
113.0000000000013
 33
0.0
 14
137.3954167710318
 24
107.0000000000013
 34
0.0
 50
90.0
  0
TEXT
  5
8746
  8
0
  6
CONTINUOUS
 10
136.5045478400782
 20
12.14829932738886
 30
0.0
 40
5.000000000000001
  1
  林 彥 旭
 41
0.5
  7
TW
  0
LINE
  5
97AC
  8
_框線
 10
368.2828282404291
 20
11.5151516105122
 30
0.0
 11
558.2828282404289
 21
11.51515161051226
 31
0.0
  0
LINE
  5
97AD
  8
_框線
 10
368.2828282404291
 20
30.70707080243139
 30
0.0
 11
558.2828282404289
 21
30.70707080243139
 31
0.0
  0
LINE
  5
97AE
  8
0
 62
     7
 39
3.838383838383838
 10
417.1387479539234
 20
26.89074735041735
 30
0.0
 11
422.2551252568766
 21
28.16984167615566
 31
0.0
  0
TEXT
  5
97AF
  8
0
  6
CONTINUOUS
 10
383.334102889298
 20
2.256713630294556
 30
0.0
 40
6.000000040560058
  1
日機株式\U+4F1A社
 41
1.5
  0
LINE
  5
97B0
  8
0
 62
     7
 10
417.1387479539234
 20
24.33255869894073
 30
0.0
 11
422.2551252568766
 21
23.05346437320242
 31
0.0
  0
LINE
  5
97B1
  8
0
 62
     7
 10
416.4025436831978
 20
25.61165302467904
 30
0.0
 11
422.7144496302406
 21
25.61165302467904
 31
0.0
  0
LINE
  5
97B2
  8
_框線
 10
368.2828282404291
 20
21.1111112064718
 30
0.0
 11
460.404040361641
 21
21.1111112064718
 31
0.0
  0
LINE
  5
97B3
  8
_框線
 10
368.2828282404291
 20
30.70707080243139
 30
0.0
 11
368.2828282404291
 21
0.00000009536069
 31
0.0
  0
TEXT
  5
97B4
  8
0
  6
CONTINUOUS
 10
370.2952906072038
 20
23.45859518862342
 30
0.0
 40
5.000000033800048
  1
日 付
 41
0.5
  0
TEXT
  5
97B5
  8
0
  6
CONTINUOUS
 10
370.4356489004208
 20
13.86172687474551
 30
0.0
 40
5.000000033800048
  1
製 \U+56F3
 41
0.5
  0
LINE
  5
97B6
  8
_框線
 10
410.5050504626512
 20
21.11111120647169
 30
0.0
 11
410.5050504626512
 21
11.5151516105122
 31
0.0
  0
LINE
  5
97B7
  8
_框線
 10
398.9898989474997
 20
30.70707080243139
 30
0.0
 11
398.9898989474997
 21
11.5151516105122
 31
0.0
  0
LINE
  5
97B8
  8
_框線
 10
379.7979797555806
 20
30.70707080243139
 30
0.0
 11
379.7979797555806
 21
11.5151516105122
 31
0.0
  0
CIRCLE
  5
97B9
  8
0
 62
     7
 10
408.8246348366243
 20
25.61165302467893
 30
0.0
 40
2.558188651476676
  0
LINE
  5
97BA
  8
0
 62
     7
 10
408.8246348366243
 20
22.42250846358281
 30
0.0
 11
408.8246348366243
 21
28.59819820455314
 31
0.0
  0
TEXT
  5
97BB
  8
0
  6
CONTINUOUS
 10
402.1565003966065
 20
13.44092911224327
 30
0.0
 40
5.000000033800048
  1
\U+691C \U+56F3
 41
0.5
  0
LINE
  5
97BC
  8
0
 62
     7
 10
405.6276460988641
 20
25.61165302467893
 30
0.0
 11
412.2125764901908
 21
25.61165302467904
 31
0.0
  0
CIRCLE
  5
97BD
  8
0
 62
     7
 10
408.8246348366243
 20
25.61165302467893
 30
0.0
 40
1.279094325738338
  0
LINE
  5
97BE
  8
0
 62
     7
 10
417.1387479539234
 20
24.33255869894073
 30
0.0
 11
417.1387479539234
 21
26.89074735041735
 31
0.0
  0
TEXT
  5
97BF
  8
0
  6
CONTINUOUS
 10
461.9941153964959
 20
5.702682257752048
 30
0.0
 40
5.000000033800048
  1
\U+56F3  面  番  \U+53F7
 41
0.5
  0
TEXT
  5
97C0
  8
0
  6
CONTINUOUS
 10
461.901449553236
 20
23.9049409915622
 30
0.0
 40
5.000000033800048
  1
品  名
 41
0.5
  0
LINE
  5
97C1
  8
_框線
 10
460.4040403616412
 20
30.70707080243139
 30
0.0
 11
460.4040403616412
 21
0.1833228533191533
 31
0.0
  0
LINE
  5
97C2
  8
_框線
 10
429.6969696545705
 20
30.70707080243139
 30
0.0
 11
429.6969696545705
 21
11.5151516105122
 31
0.0
  0
LINE
  5
97C3
  8
_框線
 10
441.2121211697219
 20
30.70707080243139
 30
0.0
 11
441.2121211697219
 21
11.5151516105122
 31
0.0
  0
LINE
  5
97C4
  8
0
 62
     7
 10
422.2551252568766
 20
23.05346437320242
 30
0.0
 11
422.2551252568766
 21
28.16984167615566
 31
0.0
  0
TEXT
  5
97C5
  8
0
  6
CONTINUOUS
 10
431.9123462363349
 20
23.59886055911883
 30
0.0
 40
5.000000033800048
  1
尺 度
 41
0.5
  0
TEXT
  5
97C6
  8
0
  6
CONTINUOUS
 10
432.1930602106247
 20
13.44092911224327
 30
0.0
 40
5.000000033800048
  1
承 認
 41
0.5
  0
LINE
  5
97C7
  8
_框線
 10
515.3155375144947
 20
30.70707080243139
 30
0.0
 11
515.3155375144945
 21
11.5151516105122
 31
0.0
  0
LINE
  5
97C8
  8
_框線
 10
532.3737373313381
 20
11.52385541304347
 30
0.0
 11
532.3737373313381
 21
0.00000009536069
 31
0.0
  0
TEXT
  5
97C9
  8
0
  6
CONTINUOUS
 10
534.0390663652136
 20
5.741579444405969
 30
0.0
 40
5.000000033800048
  1
\U+5909更
 41
0.5
  0
TEXT
  5
97CA
  8
0
  6
CONTINUOUS
 10
517.5759382664692
 20
23.69268746888662
 30
0.0
 40
5.000000033800048
  1
型  番
 41
0.5
  0
POLYLINE
  5
97CB
  8
_框線
 66
     1
 10
0.0
 20
0.0
 30
0.0
 70
     1
  0
VERTEX
  5
9C55
  8
_框線
 10
279.9999999576006
 20
0.0000000953606332
 30
0.0
  0
VERTEX
  5
9C56
  8
_框線
 10
558.2828282404289
 20
0.0000000953606332
 30
0.0
  0
VERTEX
  5
9C57
  8
_框線
 10
558.2828282404289
 20
190.0000000953606
 30
0.0
  0
VERTEX
  5
9C58
  8
_框線
 10
279.9999999576006
 20
190.0000000953606
 30
0.0
  0
SEQEND
  5
9C74
  8
_框線
  0
TEXT
  5
97CC
  8
0
  6
CONTINUOUS
 10
381.8104421223554
 20
23.45859518862342
 30
0.0
 40
5.000000033800048
  1
2016.09.05
 41
0.4
  0
TEXT
  5
97CD
  8
0
  6
CONTINUOUS
 10
445.5631249235624
 20
23.59886055911883
 30
0.0
 40
5.000000033800048
  1
NOT/S
 41
0.5
  0
TEXT
  5
97CE
  8
0
  6
CONTINUOUS
 10
384.2206997864637
 20
13.86172687474551
 30
0.0
 40
5.000000033800048
  1
陳   翎
 41
0.5
  0
TEXT
  5
97CF
  8
0
  6
CONTINUOUS
 10
493.2871870231791
 20
2.987540106357216
 30
0.0
 40
5.000000033800048
  1
NP80092
 41
0.5
  0
TEXT
  5
97D0
  8
0
  6
CONTINUOUS
 10
461.7480085811621
 20
13.2956048398386
 30
0.0
 40
5.000000033800048
  1
\U+30DD\U+30A4\U+30F3\U+30C8\U+30D5\U+30A3\U+30C3\U+30C8 \U+30CE\U+30BA\U+30EB
 41
0.5
  0
TEXT
  5
97D1
  8
0
  6
CONTINUOUS
 10
517.3410525640297
 20
13.29560483983828
 30
0.0
 40
5.000000033800048
  1
NNPT1/8H-60
 41
0.5
  0
TEXT
  5
97D2
  8
0
  6
CONTINUOUS
 10
414.9277704935344
 20
13.86172687474551
 30
0.0
 40
5.000000033800048
  1
林 \U+5F66 旭
 41
0.5
  0
INSERT
  5
9842
  8
DM
  2
*X67
 10
0.0
 20
0.0
 30
0.0
  0
ARC
  5
99DD
  8
本體外線
 10
355.0782450114597
 20
115.8000000953596
 30
0.0
 40
0.8
 50
270.0
 51
0.0
  0
ARC
  5
99DE
  8
本體外線
 10
355.0782450114593
 20
104.2000000953597
 30
0.0
 40
0.8
 50
0.0
 51
90.0
  0
LINE
  5
99DF
  8
本體外線
 10
345.8782450114592
 20
114.0187794856047
 30
0.0
 11
345.8782450114597
 21
105.9812207051164
 31
0.0
  0
LINE
  5
99E0
  8
本體內線
 10
346.3782450114592
 20
113.0000000953607
 30
0.0
 11
345.8782450114592
 21
113.5000000953607
 31
0.0
  0
LINE
  5
99E1
  8
本體外線
 10
370.1190556329046
 20
119.8149546715844
 30
0.0
 11
359.6374343900146
 21
119.8149546715842
 31
0.0
  0
LINE
  5
99E2
  8
本體外線
 10
370.1190556329046
 20
100.185045519137
 30
0.0
 11
359.6374343900146
 21
100.185045519137
 31
0.0
  0
LINE
  5
99E3
  8
本體內線
 10
346.3782450114592
 20
113.0000000953608
 30
0.0
 11
355.8782450114595
 21
113.0000000953606
 31
0.0
  0
LINE
  5
99E4
  8
本體外線
 10
354.3782450114597
 20
114.8640000953608
 30
0.0
 11
346.4765372537883
 21
114.6170717279335
 31
0.0
  0
LINE
  5
99E5
  8
本體外線
 62
     4
 10
353.3143378266811
 20
114.2497529958362
 30
0.0
 11
345.878245011459
 21
114.0173750953604
 31
0.0
  0
LINE
  5
99E6
  8
本體外線
 10
345.8782450114592
 20
114.0187794856047
 30
0.0
 11
346.4765372537881
 21
114.6170717279333
 31
0.0
  0
LINE
  5
99E7
  8
本體外線
 10
354.3782450114585
 20
105.1360000953584
 30
0.0
 11
346.4765372537879
 21
105.3829284627873
 31
0.0
  0
LINE
  5
99E8
  8
本體外線
 62
     4
 10
353.3143378266847
 20
105.7502471948828
 30
0.0
 11
345.8782450114581
 21
105.9826250953606
 31
0.0
  0
LINE
  5
99E9
  8
本體內線
 10
346.3782450114592
 20
113.0000000953607
 30
0.0
 11
346.3782450114592
 21
107.0000000953602
 31
0.0
  0
LINE
  5
99EA
  8
本體外線
 10
345.8782450114592
 20
105.9812207051164
 30
0.0
 11
346.4765372537881
 21
105.3829284627877
 31
0.0
  0
LINE
  5
99EB
  8
本體外線
 10
354.3782450114618
 20
115.0000000953596
 30
0.0
 11
354.3782450114585
 21
105.0000000953596
 31
0.0
  0
LINE
  5
99EC
  8
本體外線
 10
354.3782450114599
 20
115.0000000953596
 30
0.0
 11
355.0782450114597
 21
115.0000000953594
 31
0.0
  0
LINE
  5
99ED
  8
本體外線
 10
354.3782450114585
 20
105.0000000953596
 30
0.0
 11
355.0782450114593
 21
105.0000000953596
 31
0.0
  0
LINE
  5
99EE
  8
本體外線
 62
     4
 10
353.3143378266813
 20
114.2497529958364
 30
0.0
 11
354.3782450114597
 21
114.8640000953608
 31
0.0
  0
LINE
  5
99EF
  8
本體外線
 62
     4
 10
353.3143378266813
 20
105.7502471948851
 30
0.0
 11
354.3782450114597
 21
105.1360000953607
 31
0.0
  0
LINE
  5
99F0
  8
本體外線
 10
358.8782450114595
 20
118.5000000953603
 30
0.0
 11
358.8782450114596
 21
101.5000000953607
 31
0.0
  0
LINE
  5
99F1
  8
本體外線
 10
356.6374343900141
 20
100.185045519137
 30
0.0
 11
358.1190556329044
 21
100.185045519137
 31
0.0
  0
LINE
  5
99F2
  8
本體外線
 10
370.8782450114596
 20
101.5000000953606
 30
0.0
 11
370.8782450114596
 21
118.5000000953606
 31
0.0
  0
LINE
  5
99F3
  8
本體外線
 10
358.8782450114595
 20
118.5000000953602
 30
0.0
 11
358.8782450114595
 21
117.0000000953606
 31
0.0
  0
LINE
  5
99F4
  8
本體外線
 10
358.8782450114592
 20
110.0000000953605
 30
0.0
 11
358.8782450114592
 21
101.5000000953606
 31
0.0
  0
LINE
  5
99F5
  8
中心線
 10
416.8782450114593
 20
110.0000000953607
 30
0.0
 11
344.8782450114595
 21
110.0000000953605
 31
0.0
  0
LINE
  5
99F6
  8
本體外線
 10
358.8782450114596
 20
115.5000000953607
 30
0.0
 11
358.8782450114596
 21
110.0000000953605
 31
0.0
  0
LINE
  5
99F7
  8
本體外線
 10
358.1190556329044
 20
105.0925228072488
 30
0.0
 11
356.6374343900141
 21
105.0925228072488
 31
0.0
  0
ARC
  5
99F8
  8
本體外線
 10
342.6374343900231
 20
110.0000000953605
 30
0.0
 40
16.24081062143647
 50
342.4120462259967
 51
0.0
  0
ARC
  5
99F9
  8
本體外線
 10
354.5333463391398
 20
102.6387841631929
 30
0.0
 40
4.344898672319456
 50
325.6157525319597
 51
34.38424746804146
  0
LINE
  5
99FA
  8
本體外線
 10
358.8782450114592
 20
101.5000000953606
 30
0.0
 11
358.319672656399
 21
100.5076160581496
 31
0.0
  0
LINE
  5
99FB
  8
本體外線
 10
370.8782450114596
 20
118.5000000953606
 30
0.0
 11
370.1190556329046
 21
119.8149546715844
 31
0.0
  0
LINE
  5
99FC
  8
本體外線
 10
370.1190556329046
 20
105.0925228072489
 30
0.0
 11
359.6374343900146
 21
105.0925228072488
 31
0.0
  0
ARC
  5
99FD
  8
本體外線
 10
354.6374343900164
 20
110.0000000953607
 30
0.0
 40
16.2408106214432
 50
342.4120462260038
 51
0.0
  0
ARC
  5
99FE
  8
本體外線
 10
366.5333463391407
 20
102.6387841631929
 30
0.0
 40
4.344898672318863
 50
325.6157525319546
 51
34.38424746804542
  0
LINE
  5
99FF
  8
本體外線
 10
370.8782450114596
 20
101.5000000953606
 30
0.0
 11
370.3196726563993
 21
100.5076160581498
 31
0.0
  0
LINE
  5
9A00
  8
本體外線
 10
346.4765372537879
 20
105.3829284627873
 30
0.0
 11
346.4765372537883
 21
114.6170717279335
 31
0.0
  0
LINE
  5
9A01
  8
本體外線
 10
372.7782450114595
 20
113.6445165241904
 30
0.0
 11
372.7782450114595
 21
106.3554836665334
 31
0.0
  0
LINE
  5
9A02
  8
CONTOUR
 10
415.8782450114592
 20
112.8000000953605
 30
0.0
 11
415.8782450114592
 21
107.2000000953606
 31
0.0
  0
LINE
  5
9A03
  8
CONTOUR
 10
415.6782450114592
 20
113.0000000953605
 30
0.0
 11
415.8782450114592
 21
112.8000000953605
 31
0.0
  0
ARC
  5
9A04
  8
本體外線
 10
367.5782450114596
 20
110.0000000953619
 30
0.0
 40
6.35
 50
301.3111269331479
 51
324.9745948331294
  0
ARC
  5
9A05
  8
本體外線
 10
367.5782450114596
 20
110.0000000953619
 30
0.0
 40
6.35
 50
35.02540516687059
 51
58.68887306685207
  0
ARC
  5
9A06
  8
本體外線
 10
360.2231436837787
 20
102.6387841631929
 30
0.0
 40
4.344898672319456
 50
145.6157525319586
 51
214.38424746804
  0
ARC
  5
9A07
  8
本體外線
 10
372.1190556328954
 20
110.0000000953605
 30
0.0
 40
16.24081062143647
 50
180.0
 51
197.5879537740032
  0
LINE
  5
9A08
  8
本體外線
 10
355.8782450114592
 20
101.5000000953606
 30
0.0
 11
356.4368173665194
 21
100.5076160581496
 31
0.0
  0
LINE
  5
9A09
  8
本體外線
 10
356.6374343900141
 20
119.8149546715841
 30
0.0
 11
358.1190556329044
 21
119.814954671584
 31
0.0
  0
LINE
  5
9A0A
  8
本體外線
 10
358.1190556329044
 20
114.9074773834723
 30
0.0
 11
356.6374343900141
 21
114.9074773834723
 31
0.0
  0
ARC
  5
9A0B
  8
本體外線
 10
342.6374343900231
 20
110.0000000953605
 30
0.0
 40
16.24081062143647
 50
0.0
 51
17.58795377400326
  0
ARC
  5
9A0C
  8
本體外線
 10
354.5333463391398
 20
117.3612160275282
 30
0.0
 40
4.344898672319456
 50
325.6157525319585
 51
34.38424746804014
  0
LINE
  5
9A0D
  8
本體外線
 10
358.8782450114592
 20
118.5000000953605
 30
0.0
 11
358.319672656399
 21
119.4923841325715
 31
0.0
  0
ARC
  5
9A0E
  8
本體外線
 10
360.2231436837787
 20
117.3612160275283
 30
0.0
 40
4.344898672319456
 50
145.6157525319599
 51
214.3842474680415
  0
ARC
  5
9A0F
  8
本體外線
 10
372.1190556328954
 20
110.0000000953605
 30
0.0
 40
16.24081062143647
 50
162.4120462259967
 51
180.0
  0
LINE
  5
9A10
  8
本體外線
 10
355.8782450114592
 20
118.5000000953605
 30
0.0
 11
356.4368173665194
 21
119.4923841325715
 31
0.0
  0
LINE
  5
9A11
  8
CONTOUR
 10
355.8782450114592
 20
118.5000000953605
 30
0.0
 11
355.8782450114592
 21
101.5000000953606
 31
0.0
  0
ARC
  5
9A12
  8
本體外線
 10
375.1190556329028
 20
110.0000000953607
 30
0.0
 40
16.2408106214432
 50
180.0
 51
197.5879537739961
  0
ARC
  5
9A13
  8
本體外線
 10
363.2231436837785
 20
102.6387841631929
 30
0.0
 40
4.344898672318863
 50
145.6157525319546
 51
214.3842474680454
  0
LINE
  5
9A14
  8
本體外線
 10
358.8782450114596
 20
101.5000000953606
 30
0.0
 11
359.4368173665198
 21
100.5076160581498
 31
0.0
  0
ARC
  5
9A15
  8
本體外線
 10
375.1190556329028
 20
110.0000000953604
 30
0.0
 40
16.2408106214432
 50
162.4120462260038
 51
180.0
  0
ARC
  5
9A16
  8
本體外線
 10
363.2231436837785
 20
117.3612160275281
 30
0.0
 40
4.344898672318863
 50
145.6157525319547
 51
214.3842474680453
  0
LINE
  5
9A17
  8
本體外線
 10
358.8782450114596
 20
118.5000000953604
 30
0.0
 11
359.4368173665198
 21
119.4923841325713
 31
0.0
  0
LINE
  5
9A18
  8
本體外線
 10
370.1190556329046
 20
114.9074773834723
 30
0.0
 11
359.6374343900146
 21
114.9074773834723
 31
0.0
  0
ARC
  5
9A19
  8
本體外線
 10
354.6374343900164
 20
110.0000000953605
 30
0.0
 40
16.2408106214432
 50
0.0
 51
17.58795377399617
  0
ARC
  5
9A1A
  8
本體外線
 10
366.5333463391407
 20
117.3612160275283
 30
0.0
 40
4.344898672318863
 50
325.6157525319539
 51
34.38424746804611
  0
LINE
  5
9A1B
  8
CONTOUR
 10
371.8626890316859
 20
113.0000000953619
 30
0.0
 11
415.6782450114578
 21
113.0000000953619
 31
0.0
  0
LINE
  5
9A1C
  8
CONTOUR
 10
371.862689031686
 20
107.0000000953619
 30
0.0
 11
415.6782450114606
 21
107.0000000953619
 31
0.0
  0
LINE
  5
9A1D
  8
CONTOUR
 10
415.8782450114592
 20
107.2000000953606
 30
0.0
 11
415.6782450114592
 21
107.0000000953605
 31
0.0
  0
LINE
  5
9A1E
  8
本體內線
 10
415.3782450114592
 20
112.0000000953606
 30
0.0
 11
415.8782450114592
 21
112.5000000953606
 31
0.0
  0
LINE
  5
9A1F
  8
本體內線
 10
415.3782450114592
 20
108.0000000953605
 30
0.0
 11
415.8782450114592
 21
107.5000000953605
 31
0.0
  0
LINE
  5
9A20
  8
本體內線
 10
415.3782450114592
 20
108.0000000953605
 30
0.0
 11
415.3782450114592
 21
112.0000000953606
 31
0.0
  0
LINE
  5
9A21
  8
本體內線
 10
415.3782450114606
 20
112.0000000953619
 30
0.0
 11
370.8782450114596
 21
112.000000095362
 31
0.0
  0
LINE
  5
9A22
  8
本體內線
 10
415.3782450114576
 20
108.0000000953622
 30
0.0
 11
370.8782450114596
 21
108.0000000953619
 31
0.0
  0
LINE
  5
9A23
  8
中心線
 10
367.5782450114596
 20
110.0000000953619
 30
0.0
 11
373.5990125369837
 21
114.2157869025421
 31
0.0
  0
LINE
  5
9A24
  8
中心線
 10
367.5782450114596
 20
110.0000000953619
 30
0.0
 11
373.5990125369837
 21
105.7842132881817
 31
0.0
  0
LINE
  5
9A25
  8
本體內線
 10
346.3782450114592
 20
107.0000000953603
 30
0.0
 11
345.8782450114592
 21
106.5000000953603
 31
0.0
  0
LINE
  5
9A26
  8
本體內線
 10
346.3782450114592
 20
107.0000000953602
 30
0.0
 11
355.8782450114595
 21
107.0000000953604
 31
0.0
  0
DIMENSION
  5
9A27
  8
\M+19557\M+19290\M+190FC
  2
*D60
 10
415.8782450114592
 20
128.5821552898036
 30
0.0
 11
385.8782450114592
 21
130.6821552898036
 31
0.0
 70
    32
 13
355.8782450114592
 23
118.5000000953605
 33
0.0
 14
415.8782450114592
 24
112.8000000953605
 34
0.0
  0
DIMENSION
  5
9A2A
  8
\M+19557\M+19290\M+190FC
  2
*D61
 10
345.8782450114592
 20
128.5821552898036
 30
0.0
 11
350.8782450114592
 21
130.6821552898036
 31
0.0
 70
    32
 13
355.8782450114592
 23
118.5000000953605
 33
0.0
 14
345.8782450114592
 24
114.0187794856047
 34
0.0
  0
DIMENSION
  5
9A2D
  8
\M+19557\M+19290\M+190FC
  2
*D62
 10
423.0261015443522
 20
108.0000000953605
 30
0.0
 11
423.0261015443522
 21
100.0666667620272
 31
0.0
 70
   160
  1
%%c<>
 13
415.3782450114592
 23
112.0000000953606
 33
0.0
 14
415.3782450114592
 24
108.0000000953605
 34
0.0
 50
90.0
  0
DIMENSION
  5
9A2E
  8
\M+19557\M+19290\M+190FC
  2
*D63
 10
344.8782450114595
 20
110.0000000953605
 30
0.0
 11
390.8759128888963
 21
102.6542736299006
 31
0.0
 70
    34
 13
367.5782450114596
 23
110.0000000953619
 33
0.0
 14
373.5990125369837
 24
105.7842132881817
 34
0.0
 15
416.8782450114593
 25
110.0000000953607
 35
0.0
 16
391.9369420413336
 26
99.4926838456049
 36
0.0
  0
INSERT
  5
9A32
  8
\M+19557\M+19290\M+190FC
  2
*X68
 10
0.0
 20
0.0
 30
0.0
  0
TEXT
  5
9A33
  8
\M+19557\M+19290\M+190FC
  6
CONTINUOUS
 62
     3
 10
331.7232357759989
 20
123.3761512324623
 30
0.0
 40
2.5
  1
PT1/8
  0
CIRCLE
  5
9A34
  8
本體外線
 10
472.7573505686443
 20
110.0000000953606
 30
0.0
 40
2.500000000001336
  0
LINE
  5
9A35
  8
中心線
 10
472.7573505686443
 20
99.03034498075759
 30
0.0
 11
472.7573505686443
 21
120.9696552099636
 31
0.0
  0
CIRCLE
  5
9A36
  8
本體外線
 10
472.7573505686443
 20
110.0000000953606
 30
0.0
 40
3.644516428829832
  0
CIRCLE
  5
9A37
  8
本體外線
 10
472.7573505686443
 20
110.0000000953606
 30
0.0
 40
5.425172808308915
  0
CIRCLE
  5
9A38
  8
本體外線
 10
472.7573505686443
 20
110.0000000953606
 30
0.0
 40
8.500000000000028
  0
POLYLINE
  5
9A39
  8
本體外線
 66
     1
 10
0.0
 20
0.0
 30
0.0
 70
     1
  0
VERTEX
  5
9C62
  8
本體外線
 10
472.7573505686443
 20
119.8149546715844
 30
0.0
  0
VERTEX
  5
9C63
  8
本體外線
 10
464.2573505686441
 20
114.9074773834725
 30
0.0
  0
VERTEX
  5
9C64
  8
本體外線
 10
464.2573505686441
 20
105.0925228072487
 30
0.0
  0
VERTEX
  5
9C65
  8
本體外線
 10
472.7573505686443
 20
100.1850455191368
 30
0.0
  0
VERTEX
  5
9C66
  8
本體外線
 10
481.2573505686444
 20
105.0925228072487
 30
0.0
  0
VERTEX
  5
9C67
  8
本體外線
 10
481.2573505686444
 20
114.9074773834725
 30
0.0
  0
SEQEND
  5
9C75
  8
本體外線
  0
LINE
  5
9A3A
  8
中心線
 10
463.2573505686441
 20
110.0000000953606
 30
0.0
 11
482.2573505686444
 21
110.0000000953606
 31
0.0
  0
CIRCLE
  5
9A3B
  8
本體外線
 10
472.7573505686443
 20
110.0000000953606
 30
0.0
 40
2.0
  0
DIMENSION
  5
9A3C
  8
\M+19557\M+19290\M+190FC
  2
*D64
 10
481.2573505686444
 20
128.5821552898036
 30
0.0
 11
472.7573505686443
 21
130.6821552898036
 31
0.0
 70
    32
 13
464.2573505686441
 23
114.9074773834725
 33
0.0
 14
481.2573505686444
 24
114.9074773834725
 34
0.0
  0
DIMENSION
  5
9A3F
  8
\M+19557\M+19290\M+190FC
  2
*D57
 10
338.6911791146053
 20
107.0000000953602
 30
0.0
 11
336.5911791146053
 21
110.0000000953606
 31
0.0
 70
    32
  1
%%c<>
 13
346.3782450114592
 23
113.0000000953608
 33
0.0
 14
346.3782450114593
 24
107.0000000953602
 34
0.0
 50
90.0
  0
DIMENSION
  5
9A42
  8
\M+19557\M+19290\M+190FC
  2
*D58
 10
373.5990125369837
 20
114.2157869025421
 30
0.0
 11
390.8724956363122
 21
117.3446491052208
 31
0.0
 70
    34
 13
416.8782450114593
 23
110.0000000953607
 33
0.0
 14
344.8782450114595
 24
110.0000000953605
 34
0.0
 15
367.5782450114596
 25
110.0000000953619
 35
0.0
 16
393.5549614253716
 26
115.3637605824008
 36
0.0
  0
CIRCLE
  5
9A46
  8
本體外線
 10
472.7573505686443
 20
110.0000000953606
 30
0.0
 40
3.000000000001307
  0
DIMENSION
  5
9A47
  8
\M+19557\M+19290\M+190FC
  2
*D59
 10
433.0261015443481
 20
107.0000000953619
 30
0.0
 11
433.0261015443481
 21
110.000000095362
 31
0.0
 70
   160
  1
%%c<>
 13
415.6782450114578
 23
113.0000000953619
 33
0.0
 14
415.6782450114606
 24
107.0000000953619
 34
0.0
 50
90.0
  0
ENDSEC
  0
EOF
